<?xml version="1.0" standalone="no"?>
<!DOCTYPE svg PUBLIC "-//W3C//DTD SVG 1.1//EN" "http://www.w3.org/Graphics/SVG/1.1/DTD/svg11.dtd">
<svg xmlns="http://www.w3.org/2000/svg">
<defs >
<font id="Teko" horiz-adv-x="411" ><font-face
    font-family="Teko Medium"
    units-per-em="1000"
    panose-1="2 0 0 0 0 0 0 0 0 0"
    ascent="958"
    descent="-475"
    alphabetic="0" />
<glyph unicode=" " glyph-name="space" horiz-adv-x="161" />
<glyph unicode="!" glyph-name="exclam" horiz-adv-x="234" d="M56 0V135H177V0H56ZM50 631H184L164 212H70L50 631Z" />
<glyph unicode="&quot;" glyph-name="quotedbl" horiz-adv-x="333" d="M193 631H296V395H193V631ZM37 631H140V395H37V631Z" />
<glyph unicode="#" glyph-name="numbersign" horiz-adv-x="549" d="M519 394H444L413 236H482V155H398L368 0H269L299 155H189L159 0H60L90 155H30V236H105L136 394H67V475H151L181 630H280L250 475H360L390 630H489L459 475H519V394ZM314 236L345 394H235L204 236H314Z" />
<glyph unicode="$" glyph-name="dollar" horiz-adv-x="399" d="M180 362H259Q364 362 364 264V99Q364 0 255 0H254V-79H145V0Q38 1 38 99V186H153V115Q153 99 159 94T182 88H220Q236 88 242 93T248 115V250Q248 266 242 271T220 277H139Q36 277 36 377V532Q36
631 144 631H145V710H254V631Q362 631 362 532V444H246V516Q246 532 240 537T218 543H180Q163 543 157 538T151 516V389Q151 373 157 368T180 362Z" />
<glyph unicode="%" glyph-name="percent" horiz-adv-x="716" d="M469 631H559L247 0H158L469 631ZM595 98V253Q595 268 590 273T570 278H550Q535 278 531 273T526 253V98Q526 83 530 78T550 73H570Q585 73 590 78T595 98ZM190 377V533Q190 548 186 553T166 558H146Q131
558 126 553T121 533V377Q121 363 126 358T146 353H166Q181 353 185 358T190 377ZM688 267V84Q688 0 599 0H522Q433 0 433 84V267Q433 309 454 330T522 351H599Q688 351 688 267ZM283 547V363Q283 280 194 280H117Q28 280 28 363V547Q28 631 117 631H194Q283 631
283 547Z" />
<glyph unicode="&amp;" glyph-name="ampersand" horiz-adv-x="509" d="M369 0H145Q36 0 36 99V189Q36 227 51 249T106 296L132 314Q108 343 96 360Q63 405 63 444V532Q63 631 172 631H275Q382 631 382 532V447Q382 395 362 366Q341 334 276 294L389 161V236H481V99Q481
78 475 60L557 -35H439L405 3Q388 0 369 0ZM176 521V438Q176 408 212 367Q248 391 259 405T271 445V521Q271 537 266 542T243 548H204Q187 548 182 543T176 521ZM175 84H334L195 242Q159 220 153 209T146 178V111Q146 95 152 90T175 84Z" />
<glyph unicode="&apos;" glyph-name="quotesingle" horiz-adv-x="185" d="M37 631H148V395H37V631Z" />
<glyph unicode="(" glyph-name="parenleft" horiz-adv-x="285" d="M45 410Q45 597 105 697T283 797H296V701L284 700Q160 694 160 412V212Q160 -70 284 -76L296 -77V-173H283Q166 -173 106 -73T45 214V410Z" />
<glyph unicode=")" glyph-name="parenright" horiz-adv-x="285" d="M239 214Q239 27 179 -73T1 -173H-12V-77L0 -76Q124 -70 124 212V412Q124 694 0 700L-12 701V797H1Q118 797 178 697T239 410V214Z" />
<glyph unicode="*" glyph-name="asterisk" horiz-adv-x="341" d="M126 601V631H215V600Q215 563 207 534Q235 552 269 562L297 571L325 486Q258 466 230 464Q252 448 276 415L294 390L222 337Q185 388 171 421Q158 388 120 337L47 390Q88 444 111 464Q77 466 45
477L16 486L44 571L73 562Q106 552 134 533Q126 569 126 601Z" />
<glyph unicode="+" glyph-name="plus" horiz-adv-x="439" d="M418 359V270H275V118H164V270H21V359H164V511H275V359H418Z" />
<glyph unicode="," glyph-name="comma" horiz-adv-x="190" d="M34 135H156V63L72 -142H34V135Z" />
<glyph unicode="-" glyph-name="hyphen" horiz-adv-x="323" d="M40 255V338H283V255H40Z" />
<glyph unicode="." glyph-name="period" horiz-adv-x="190" d="M34 0V135H156V0H34Z" />
<glyph unicode="/" glyph-name="slash" horiz-adv-x="396" d="M279 700H380L97 -103H-4L279 700Z" />
<glyph unicode="0" glyph-name="zero" horiz-adv-x="423" d="M263 115V516Q263 532 257 537T234 543H188Q172 543 166 538T160 516V115Q160 99 166 94T188 88H234Q251 88 257 93T263 115ZM378 532V99Q378 0 269 0H153Q44 0 44 99V532Q44 631 153 631H269Q378 631
378 532Z" />
<glyph unicode="1" glyph-name="one" horiz-adv-x="260" d="M212 631V0H97V543H19V631H212Z" />
<glyph unicode="2" glyph-name="two" horiz-adv-x="369" d="M139 516V422H24V532Q24 631 133 631H229Q339 631 339 532V461Q339 387 294 317L163 88H342V0H27V83L190 347Q225 400 225 463V516Q225 532 219 537T197 543H168Q151 543 145 538T139 516Z" />
<glyph unicode="3" glyph-name="three" horiz-adv-x="390" d="M143 516V431H28V532Q28 631 137 631H238Q347 631 347 532V397Q347 335 305 321Q347 307 347 249V99Q347 0 238 0H137Q28 0 28 99V199H143V115Q143 99 149 94T171 88H205Q221 88 227 93T233 115V250Q233
266 228 272T205 278H128V362H205Q221 362 227 367T233 389V516Q233 532 227 537T205 543H171Q155 543 149 538T143 516Z" />
<glyph unicode="4" glyph-name="four" horiz-adv-x="405" d="M405 211V122H345V0H236V122H7V220L205 631H320L112 211H236V333H345V211H405Z" />
<glyph unicode="5" glyph-name="five" horiz-adv-x="399" d="M158 401H256Q365 401 365 302V99Q365 0 256 0H149Q40 0 40 99V207H156V115Q156 99 162 94T184 88H222Q239 88 245 93T251 115V286Q251 302 245 307T222 313H44V631H361V543H158V401Z" />
<glyph unicode="6" glyph-name="six" horiz-adv-x="414" d="M158 367H267Q376 367 376 268V99Q376 0 267 0H153Q44 0 44 99V532Q44 631 153 631H262Q371 631 371 532V435H258V516Q258 532 252 537T230 543H186Q170 543 164 538T158 516V367ZM263 115V254Q263 270
257 275T234 281H158V115Q158 99 164 94T186 88H234Q251 88 257 93T263 115Z" />
<glyph unicode="7" glyph-name="seven" horiz-adv-x="329" d="M324 631V563L148 0H30L201 538H7V631H324Z" />
<glyph unicode="8" glyph-name="eight" horiz-adv-x="421" d="M377 532V395Q377 333 335 319Q377 305 377 247V99Q377 0 268 0H152Q43 0 43 99V247Q43 305 85 319Q43 333 43 395V532Q43 631 152 631H268Q377 631 377 532ZM266 114V252Q266 268 260 273T237 279H183Q167
279 161 274T155 252V114Q155 98 161 93T183 87H237Q254 87 260 92T266 114ZM266 385V517Q266 533 260 538T237 544H183Q167 544 161 539T155 517V385Q155 369 161 364T183 358H237Q254 358 260 363T266 385Z" />
<glyph unicode="9" glyph-name="nine" horiz-adv-x="412" d="M145 631H258Q367 631 367 532V99Q367 0 258 0H149Q40 0 40 99V194H153V115Q153 99 159 94T181 88H226Q242 88 248 93T254 115V254H145Q36 254 36 353V532Q36 631 145 631ZM177 337H254V516Q254 532
248 537T226 543H177Q161 543 155 538T149 516V364Q149 348 155 343T177 337Z" />
<glyph unicode=":" glyph-name="colon" horiz-adv-x="190" d="M34 344H156V147H34V344Z" />
<glyph unicode=";" glyph-name="semicolon" horiz-adv-x="190" d="M34 356V491H156V356H34ZM34 135H156V63L72 -142H34V135Z" />
<glyph unicode="&lt;" glyph-name="less" horiz-adv-x="453" d="M425 400L137 316L425 231V135L28 263V371L425 496V400Z" />
<glyph unicode="=" glyph-name="equal" horiz-adv-x="453" d="M28 174V266H425V174H28ZM28 364V455H425V364H28Z" />
<glyph unicode="&gt;" glyph-name="greater" horiz-adv-x="453" d="M316 316L28 400V496L425 371V263L28 135V231L316 316Z" />
<glyph unicode="?" glyph-name="question" horiz-adv-x="379" d="M129 631H236Q345 631 345 533V375Q345 277 236 277H228L223 212H127L117 350H203Q218 350 223 356T229 378V520Q229 536 224 542T203 548H163Q147 548 142 542T136 520V449H20V533Q20 631 129
631ZM113 0V135H235V0H113Z" />
<glyph unicode="@" glyph-name="at" horiz-adv-x="744" d="M340 326V186Q340 170 345 165T367 160H395Q424 160 424 192V320Q424 352 395 352H367Q351 352 346 347T340 326ZM237 337Q237 431 334 431H358Q412 431 426 387V431H523V159H568Q584 159 590 164T596
186V475Q596 492 590 497T568 503H198Q182 503 176 498T170 475V32Q170 16 176 11T198 5H524V-80H168Q65 -80 65 19V489Q65 588 168 588H596Q698 588 698 489V179Q698 81 596 81H430V135Q421 81 358 81H334Q237 81 237 175V337Z" />
<glyph unicode="A" glyph-name="A" horiz-adv-x="431" d="M307 0L283 131H145L123 0H8L135 631H290L423 0H307ZM160 218H267L212 520L160 218Z" />
<glyph unicode="B" glyph-name="B" horiz-adv-x="440" d="M283 388V520Q283 536 277 541T254 547H163V361H254Q271 361 277 366T283 388ZM283 111V250Q283 266 277 271T254 277H163V84H254Q271 84 277 89T283 111ZM48 631H288Q397 631 397 532V396Q397 333 355
319Q397 305 397 247V99Q397 0 288 0H48V631Z" />
<glyph unicode="C" glyph-name="C" d="M378 422H262V520Q262 536 256 541T234 547H187Q171 547 165 542T159 520V110Q159 94 165 89T187 83H234Q250 83 256 88T262 110V206H378V98Q378 -1 269 -1H152Q43 -1 43 98V532Q43 631 152 631H269Q378 631 378 532V422Z" />
<glyph unicode="D" glyph-name="D" horiz-adv-x="446" d="M53 631H293Q402 631 402 532V99Q402 0 293 0H53V631ZM286 111V520Q286 536 280 541T258 547H168V84H258Q274 84 280 89T286 111Z" />
<glyph unicode="E" glyph-name="E" horiz-adv-x="374" d="M164 88H356V0H48V631H348V543H164V368H319V279H164V88Z" />
<glyph unicode="F" glyph-name="F" horiz-adv-x="363" d="M354 543H164V351H319V267H164V0H48V631H354V543Z" />
<glyph unicode="G" glyph-name="G" horiz-adv-x="416" d="M378 437H262V520Q262 536 256 541T234 547H187Q171 547 165 542T159 520V110Q159 94 165 89T187 83H234Q250 83 256 88T262 110V250H212V331H378V98Q378 -1 269 -1H152Q43 -1 43 98V532Q43 631 152 631H269Q378
631 378 532V437Z" />
<glyph unicode="H" glyph-name="H" horiz-adv-x="456" d="M293 631H408V0H293V269H163V0H48V631H163V357H293V631Z" />
<glyph unicode="I" glyph-name="I" horiz-adv-x="223" d="M54 631H169V0H54V631Z" />
<glyph unicode="J" glyph-name="J" horiz-adv-x="370" d="M13 221H128V115Q128 99 134 94T157 88H181Q197 88 203 93T209 115V631H325V99Q325 0 216 0H122Q13 0 13 99V221Z" />
<glyph unicode="K" glyph-name="K" horiz-adv-x="426" d="M418 631L288 317L417 0H293L168 317L294 631H418ZM48 0V631H163V0H48Z" />
<glyph unicode="L" glyph-name="L" horiz-adv-x="334" d="M163 88H331V0H48V631H163V88Z" />
<glyph unicode="M" glyph-name="M" horiz-adv-x="561" d="M150 0H48V631H174L280 256L386 631H512V0H411V443L327 137H234L150 442V0Z" />
<glyph unicode="N" glyph-name="N" horiz-adv-x="446" d="M292 631H397V0H289L154 418V0H48V631H159L292 219V631Z" />
<glyph unicode="O" glyph-name="O" horiz-adv-x="429" d="M153 631H275Q384 631 384 532V99Q384 0 275 0H153Q44 0 44 99V532Q44 631 153 631ZM269 115V516Q269 532 263 537T241 543H188Q171 543 165 538T159 516V115Q159 99 165 94T188 88H241Q257 88 263 93T269 115Z" />
<glyph unicode="P" glyph-name="P" horiz-adv-x="415" d="M48 631H280Q389 631 389 532V331Q389 232 280 232H163V0H48V631ZM274 347V516Q274 532 268 537T246 543H163V320H246Q262 320 268 325T274 347Z" />
<glyph unicode="Q" glyph-name="Q" horiz-adv-x="429" d="M153 0Q44 0 44 99V532Q44 631 153 631H275Q384 631 384 532V99Q384 31 334 10L411 -84H285L218 0H153ZM159 516V115Q159 99 165 94T188 88H241Q257 88 263 93T269 115V516Q269 532 263 537T241 543H188Q171
543 165 538T159 516Z" />
<glyph unicode="R" glyph-name="R" horiz-adv-x="430" d="M163 246V0H48V631H280Q389 631 389 532V345Q389 263 316 249L421 0H297L201 246H163ZM163 543V331H246Q262 331 268 336T274 358V516Q274 532 268 537T246 543H163Z" />
<glyph unicode="S" glyph-name="S" horiz-adv-x="399" d="M248 115V250Q248 266 242 271T220 277H139Q36 277 36 377V532Q36 631 144 631H254Q362 631 362 532V444H246V516Q246 532 240 537T218 543H180Q163 543 157 538T151 516V389Q151 373 157 368T180 362H259Q364
362 364 264V99Q364 0 255 0H147Q38 0 38 99V186H153V115Q153 99 159 94T182 88H220Q236 88 242 93T248 115Z" />
<glyph unicode="T" glyph-name="T" horiz-adv-x="346" d="M341 631V543H230V0H115V543H5V631H341Z" />
<glyph unicode="U" glyph-name="U" horiz-adv-x="434" d="M272 631H387V99Q387 0 278 0H156Q47 0 47 99V631H162V115Q162 99 168 94T190 88H243Q260 88 266 93T272 115V631Z" />
<glyph unicode="V" glyph-name="V" horiz-adv-x="413" d="M289 631H407L282 0H131L6 631H125L206 121L289 631Z" />
<glyph unicode="W" glyph-name="W" horiz-adv-x="675" d="M551 631H665L554 0H408L337 445L267 0H121L10 631H129L194 119L277 631H398L480 119L551 631Z" />
<glyph unicode="X" glyph-name="X" horiz-adv-x="416" d="M269 322L413 0H285L206 221L126 0H3L142 322L10 631H139L206 423L273 631H397L269 322Z" />
<glyph unicode="Y" glyph-name="Y" horiz-adv-x="407" d="M265 0H150V200L3 631H120L206 307L287 631H404L265 203V0Z" />
<glyph unicode="Z" glyph-name="Z" horiz-adv-x="357" d="M345 631V543L130 88H340V0H12V88L227 543H23V631H345Z" />
<glyph unicode="[" glyph-name="bracketleft" horiz-adv-x="313" d="M266 697H169V-75H266V-163H53V785H266V697Z" />
<glyph unicode="\" glyph-name="backslash" horiz-adv-x="396" d="M16 700H118L401 -103H299L16 700Z" />
<glyph unicode="]" glyph-name="bracketright" horiz-adv-x="313" d="M247 785V-163H34V-75H131V697H34V785H247Z" />
<glyph unicode="^" glyph-name="asciicircum" horiz-adv-x="558" d="M195 670H344L473 306H355L269 569L184 306H66L195 670Z" />
<glyph unicode="_" glyph-name="underscore" horiz-adv-x="474" d="M0 -126V-42H474V-126H0Z" />
<glyph unicode="`" glyph-name="grave" horiz-adv-x="444" d="M231 660L317 523H223L110 660H231Z" />
<glyph unicode="a" glyph-name="a" horiz-adv-x="394" d="M240 491H352V0H238V42Q223 0 169 0H138Q36 0 36 99V392Q36 491 138 491H169Q228 491 240 443V491ZM177 88H207Q238 88 238 121V370Q238 403 207 403H177Q161 403 155 398T149 376V115Q149 99 155 94T177 88Z" />
<glyph unicode="b" glyph-name="b" horiz-adv-x="394" d="M226 492H256Q359 492 359 393V99Q359 0 256 0H226Q169 0 155 45V0H43V669H156V450Q171 492 226 492ZM245 115V377Q245 393 239 398T217 404H187Q156 404 156 370V121Q156 88 187 88H217Q233 88 239 93T245 115Z" />
<glyph unicode="c" glyph-name="c" horiz-adv-x="380" d="M352 326H241V376Q241 392 235 397T213 403H177Q161 403 155 398T149 376V115Q149 99 155 94T177 88H213Q229 88 235 93T241 115V166H352V99Q352 0 243 0H145Q36 0 36 99V392Q36 491 145 491H243Q352 491
352 392V326Z" />
<glyph unicode="d" glyph-name="d" horiz-adv-x="394" d="M238 669H352V0H240V49Q228 0 169 0H138Q36 0 36 99V393Q36 492 138 492H169Q223 492 238 450V669ZM177 88H207Q238 88 238 121V370Q238 389 231 396T207 404H177Q161 404 155 399T149 377V115Q149 99
155 94T177 88Z" />
<glyph unicode="e" glyph-name="e" horiz-adv-x="392" d="M147 491H253Q361 491 361 392V213H148V112Q148 96 153 91T176 85H222Q238 85 244 90T250 112V149H360V99Q360 0 251 0H147Q38 0 38 99V392Q38 491 147 491ZM148 286H252V380Q252 396 246 401T224 407H176Q160
407 154 402T148 380V286Z" />
<glyph unicode="f" glyph-name="f" horiz-adv-x="248" d="M243 580H198Q182 580 176 575T170 553V491H243V403H170V0H57V403H7V491H57V570Q57 669 165 669H243V580Z" />
<glyph unicode="g" glyph-name="g" horiz-adv-x="394" d="M240 491H352V-37Q352 -136 243 -136H54V-50H210Q226 -50 232 -45T238 -23V55Q223 13 169 13H138Q36 13 36 112V392Q36 491 138 491H169Q228 491 240 443V491ZM177 101H207Q224 101 231 108T238 135V370Q238
403 207 403H177Q161 403 155 398T149 376V128Q149 112 155 107T177 101Z" />
<glyph unicode="h" glyph-name="h" horiz-adv-x="399" d="M226 491H256Q359 491 359 392V0H245V376Q245 392 239 397T217 403H187Q156 403 156 370V0H43V669H156V449Q171 491 226 491Z" />
<glyph unicode="i" glyph-name="i" horiz-adv-x="199" d="M40 571V670H159V571H40ZM156 0H43V491H156V0Z" />
<glyph unicode="j" glyph-name="j" horiz-adv-x="199" d="M40 571V670H159V571H40ZM43 -23V491H156V-37Q156 -136 47 -136H-8V-50H14Q31 -50 37 -45T43 -23Z" />
<glyph unicode="k" glyph-name="k" horiz-adv-x="391" d="M390 491L280 255L390 0H271L165 255L272 491H390ZM43 0V669H156V0H43Z" />
<glyph unicode="l" glyph-name="l" horiz-adv-x="199" d="M156 0H43V669H156V0Z" />
<glyph unicode="m" glyph-name="m" horiz-adv-x="599" d="M428 491H459Q561 491 561 392V0H448V376Q448 392 442 397T420 403H390Q359 403 359 370V0H245V376Q245 392 239 397T217 403H187Q156 403 156 370V0H43V491H155V446Q169 491 226 491H256Q330 491 350
441Q364 491 428 491Z" />
<glyph unicode="n" glyph-name="n" horiz-adv-x="399" d="M226 491H256Q359 491 359 392V0H245V376Q245 392 239 397T217 403H187Q156 403 156 370V0H43V491H155V446Q169 491 226 491Z" />
<glyph unicode="o" glyph-name="o" horiz-adv-x="402" d="M145 491H258Q364 491 364 392V99Q364 0 258 0H145Q38 0 38 99V392Q38 491 145 491ZM253 112V379Q253 395 247 400T224 406H178Q161 406 155 401T149 379V112Q149 96 155 91T178 85H224Q241 85 247 90T253 112Z" />
<glyph unicode="p" glyph-name="p" horiz-adv-x="394" d="M226 491H256Q359 491 359 392V99Q359 0 256 0H226Q171 0 156 42V-136H43V491H155V446Q169 491 226 491ZM245 115V376Q245 392 239 397T217 403H187Q156 403 156 370V121Q156 88 187 88H217Q233 88 239
93T245 115Z" />
<glyph unicode="q" glyph-name="q" horiz-adv-x="394" d="M240 491H352V-136H238V42Q223 0 169 0H138Q36 0 36 99V392Q36 491 138 491H169Q228 491 240 443V491ZM177 88H207Q238 88 238 121V370Q238 403 207 403H177Q161 403 155 398T149 376V115Q149 99 155 94T177 88Z" />
<glyph unicode="r" glyph-name="r" horiz-adv-x="266" d="M243 493H261V395H219Q156 395 156 323V0H43V491H155V428Q163 457 186 475T243 493Z" />
<glyph unicode="s" glyph-name="s" horiz-adv-x="362" d="M221 108V177Q221 193 215 198T192 204H138Q31 204 31 302V392Q31 491 140 491H219Q327 491 327 392V346H218V383Q218 399 212 404T190 410H170Q153 410 147 405T141 383V311Q141 295 147 290T170 284H224Q332
284 332 186V99Q332 0 223 0H142Q33 0 33 99V144H144V108Q144 92 150 87T172 81H192Q209 81 215 86T221 108Z" />
<glyph unicode="t" glyph-name="t" horiz-adv-x="244" d="M234 403H167V118Q167 102 173 97T196 91H233V0H163Q54 0 54 99V403H5V491H54V579H167V491H234V403Z" />
<glyph unicode="u" glyph-name="u" horiz-adv-x="399" d="M243 491H357V0H245V49Q233 0 174 0H143Q41 0 41 99V491H154V115Q154 99 160 94T182 88H212Q243 88 243 121V491Z" />
<glyph unicode="v" glyph-name="v" horiz-adv-x="358" d="M116 491L179 106L242 491H355L254 0H104L3 491H116Z" />
<glyph unicode="w" glyph-name="w" horiz-adv-x="583" d="M472 491H578L482 0H349L290 347L231 0H98L5 491H111L168 108L232 491H351L411 109L472 491Z" />
<glyph unicode="x" glyph-name="x" horiz-adv-x="373" d="M247 252L370 0H253L185 163L120 0H5L123 251L8 491H128L186 338L242 491H358L247 252Z" />
<glyph unicode="y" glyph-name="y" horiz-adv-x="377" d="M126 -136H59V-49H110Q154 -49 164 -14L172 18H118L6 491H123L193 113L258 491H372L262 -30Q236 -136 126 -136Z" />
<glyph unicode="z" glyph-name="z" horiz-adv-x="321" d="M308 85V0H13V85L185 406H24V491H304V406L130 85H308Z" />
<glyph unicode="{" glyph-name="braceleft" horiz-adv-x="295" d="M217 674V435Q217 325 141 312Q217 304 217 196V-50Q217 -78 247 -78H287V-162H206Q102 -162 102 -59V170Q102 222 84 246T24 271H10V354H24Q65 354 83 378T102 455V683Q102 785 206 785H287V702H247Q217
702 217 674Z" />
<glyph unicode="|" glyph-name="bar" horiz-adv-x="217" d="M53 769H160V-140H53V769Z" />
<glyph unicode="}" glyph-name="braceright" horiz-adv-x="295" d="M77 435V674Q77 702 47 702H8V785H89Q192 785 192 683V455Q192 402 210 378T271 354H285V271H271Q229 271 211 247T192 170V-59Q192 -162 89 -162H8V-78H47Q77 -78 77 -50V196Q77 248 97 278T154
312Q77 325 77 435Z" />
<glyph unicode="~" glyph-name="asciitilde" horiz-adv-x="581" d="M372 211Q336 211 307 231T254 271T208 291T181 283T175 257V211H71V282Q71 326 93 347T163 369H209Q245 369 274 349T328 309T373 289T399 296T405 323V368H509V297Q509 254 487 233T416 211H372Z" />
<glyph unicode="&#xa0;" glyph-name="uni00A0" horiz-adv-x="161" />
<glyph unicode="&#xa1;" glyph-name="exclamdown" horiz-adv-x="234" d="M184 -140H50L70 279H164L184 -140ZM56 356V491H177V356H56Z" />
<glyph unicode="&#xa2;" glyph-name="cent" horiz-adv-x="380" d="M352 326H241V376Q241 392 235 397T213 403H177Q161 403 155 398T149 376V115Q149 99 155 94T177 88H213Q229 88 235 93T241 115V166H352V99Q352 4 251 0V-77H142V0Q36 1 36 99V392Q36 490 142
491V569H251V491Q352 487 352 392V326Z" />
<glyph unicode="&#xa3;" glyph-name="sterling" horiz-adv-x="421" d="M401 88V0H28V84Q56 86 65 106T75 175V260H28V344H75V532Q75 631 184 631H288Q397 631 397 532V440H282V516Q282 532 276 537T253 543H219Q203 543 197 538T191 516V344H327V260H191V166Q191
106 164 88H401Z" />
<glyph unicode="&#xa4;" glyph-name="currency" horiz-adv-x="516" d="M430 371V227Q430 191 421 165L463 123L393 52L341 104Q324 101 305 101H215Q190 101 174 105L121 52L50 123L98 171Q91 193 91 227V371Q91 409 101 435L50 486L121 556L183 495Q203 497 215
497H305Q324 497 332 496L393 556L463 486L418 441Q430 413 430 371ZM239 182H280Q309 182 320 191T332 233V365Q332 397 321 406T280 416H239Q210 416 199 407T188 365V233Q188 201 199 192T239 182Z" />
<glyph unicode="&#xa5;" glyph-name="yen" horiz-adv-x="425" d="M400 353V274H297L279 222H400V144H272V0H157V144H28V222H150L133 274H28V353H106L11 631H127L214 317L298 631H415L323 353H400Z" />
<glyph unicode="&#xa6;" glyph-name="brokenbar" horiz-adv-x="217" d="M164 376H48V725H164V376ZM48 254H164V-96H48V254Z" />
<glyph unicode="&#xa7;" glyph-name="section" horiz-adv-x="454" d="M399 528H286V560Q286 576 280 581T258 587H223Q206 587 200 582T194 560V490Q194 474 200 469T223 463H287Q396 463 396 364V287Q396 219 361 196Q374 174 374 139V48Q374 -51 265 -51H164Q55
-51 55 48V90H168V57Q168 41 174 36T197 30H232Q248 30 254 35T260 57V127Q260 143 254 148T232 154H167Q58 154 58 253V324Q58 394 97 417Q81 440 81 478V570Q81 668 190 668H290Q399 668 399 570V528ZM259 380H195Q179 380 173 375T167 353V265Q167 249 172 244T195
238H259Q276 238 281 243T287 265V353Q287 369 281 374T259 380Z" />
<glyph unicode="&#xa8;" glyph-name="dieresis" horiz-adv-x="444" d="M266 541V646H382V541H266ZM62 541V646H178V541H62Z" />
<glyph unicode="&#xa9;" glyph-name="copyright" horiz-adv-x="722" d="M409 249V277H499V234Q499 152 411 152H322Q233 152 233 234V405Q233 486 322 486H411Q499 486 499 405V362H409V390Q409 404 404 409T384 414H348Q333 414 328 409T323 390V249Q323 235
328 230T348 225H384Q399 225 404 230T409 249ZM285 77H447Q528 77 562 125T596 277V349Q596 454 562 504T447 555H285Q205 555 170 505T135 349V277Q135 173 169 125T285 77ZM691 340V286Q691 142 638 71T462 0H270Q146 0 94 71T41 286V340Q41 484 94 557T270
631H462Q585 631 638 558T691 340Z" />
<glyph unicode="&#xaa;" glyph-name="ordfeminine" horiz-adv-x="280" d="M178 631H250V284H177V311Q168 284 132 284H98Q25 284 25 354V561Q25 631 98 631H130Q169 631 178 600V631ZM118 346H155Q177 346 177 370V547Q177 570 155 570H118Q107 570 103 566T98
551V365Q98 354 102 350T118 346Z" />
<glyph unicode="&#xab;" glyph-name="guillemotleft" horiz-adv-x="493" d="M352 102L236 256L352 410H465L349 256L465 102H352ZM147 102L31 256L147 410H260L143 256L260 102H147Z" />
<glyph unicode="&#xac;" glyph-name="logicalnot" horiz-adv-x="491" d="M443 405V144H359V290H39V405H443Z" />
<glyph unicode="&#xad;" glyph-name="uni00AD" horiz-adv-x="323" d="M40 255V338H283V255H40Z" />
<glyph unicode="&#xae;" glyph-name="registered" horiz-adv-x="433" d="M234 545V591Q234 598 227 598H202V538H227Q234 538 234 545ZM159 630H238Q276 630 276 595V540Q276 512 252 506L287 427H242L210 504H202V427H159V630ZM171 395H262Q308 395 327 421T346
505V546Q346 605 327 632T262 660H171Q126 660 107 632T87 546V505Q87 447 106 421T171 395ZM400 541V511Q400 430 370 390T270 350H162Q92 350 63 390T33 511V541Q33 622 62 663T162 705H270Q340 705 370 664T400 541Z" />
<glyph unicode="&#xaf;" glyph-name="overscore" horiz-adv-x="444" d="M70 552V631H373V552H70Z" />
<glyph unicode="&#xb0;" glyph-name="degree" horiz-adv-x="412" d="M254 435V527Q254 542 248 547T225 553H184Q167 553 161 548T155 527V435Q155 420 161 415T184 409H225Q242 409 248 414T254 435ZM359 533V429Q359 331 253 331H156Q50 331 50 429V533Q50 631
156 631H253Q359 631 359 533Z" />
<glyph unicode="&#xb1;" glyph-name="plusminus" horiz-adv-x="453" d="M282 446H425V359H282V281H171V359H28V446H171V523H282V446ZM28 161V250H425V161H28Z" />
<glyph unicode="&#xb2;" glyph-name="twosuperior" horiz-adv-x="227" d="M87 562V512H14V577Q14 631 73 631H147Q207 631 207 577V541Q207 488 178 452L102 341H208V284H14V337L115 474Q133 497 133 539V562Q133 577 118 577H102Q87 577 87 562Z" />
<glyph unicode="&#xb3;" glyph-name="threesuperior" horiz-adv-x="234" d="M88 562V521H15V577Q15 631 75 631H150Q210 631 210 577V501Q210 466 187 459Q210 451 210 419V338Q210 284 150 284H75Q15 284 15 338V394H88V353Q88 338 104 338H122Q131 338 134 341T137
353V417Q137 426 134 429T122 432H89V484H122Q137 484 137 499V562Q137 577 122 577H104Q88 577 88 562Z" />
<glyph unicode="&#xb4;" glyph-name="acute" horiz-adv-x="444" d="M117 523L203 660H324L211 523H117Z" />
<glyph unicode="&#xb5;" glyph-name="uni00B5" horiz-adv-x="405" d="M243 491H356V0H244V49Q232 0 173 0H153V-136H40V491H153V115Q153 99 159 94T182 88H212Q243 88 243 121V491Z" />
<glyph unicode="&#xb6;" glyph-name="paragraph" horiz-adv-x="525" d="M369 631H466V-136H369V631ZM300 631V-136H202V221H152Q43 221 43 320V532Q43 631 152 631H300Z" />
<glyph unicode="&#xb7;" glyph-name="middot" horiz-adv-x="233" d="M38 259V389H160V259H38Z" />
<glyph unicode="&#xb8;" glyph-name="cedilla" horiz-adv-x="444" d="M204 -95V-49H311V-104Q311 -208 196 -208H129V-125H173Q204 -125 204 -95Z" />
<glyph unicode="&#xb9;" glyph-name="onesuperior" horiz-adv-x="166" d="M128 631V284H53V577H11V631H128Z" />
<glyph unicode="&#xba;" glyph-name="ordmasculine" horiz-adv-x="272" d="M101 631H171Q247 631 247 561V354Q247 284 171 284H101Q26 284 26 354V561Q26 631 101 631ZM174 357V558Q174 569 170 573T153 577H119Q107 577 103 573T99 558V357Q99 346 103 342T119
338H153Q165 338 169 342T174 357Z" />
<glyph unicode="&#xbb;" glyph-name="guillemotright" horiz-adv-x="493" d="M465 256L349 102H236L352 256L236 410H349L465 256ZM260 256L144 102H31L147 256L31 410H144L260 256Z" />
<glyph unicode="&#xbf;" glyph-name="questiondown" horiz-adv-x="379" d="M229 42H345V-42Q345 -140 236 -140H129Q20 -140 20 -42V116Q20 214 129 214H137L142 279H238L248 141H162Q147 141 142 135T136 113V-29Q136 -45 141 -51T162 -57H202Q218 -57 223 -51T229
-29V42ZM252 491V356H130V491H252Z" />
<glyph unicode="&#xc0;" glyph-name="Agrave" horiz-adv-x="431" d="M307 0L283 131H145L123 0H8L135 631H290L423 0H307ZM160 218H267L212 520L160 218ZM253 663H159L46 800H167L253 663Z" />
<glyph unicode="&#xc1;" glyph-name="Aacute" horiz-adv-x="431" d="M307 0L283 131H145L123 0H8L135 631H290L423 0H307ZM160 218H267L212 520L160 218ZM374 800L261 663H167L253 800H374Z" />
<glyph unicode="&#xc2;" glyph-name="Acircumflex" horiz-adv-x="431" d="M307 0L283 131H145L123 0H8L135 631H290L423 0H307ZM160 218H267L212 520L160 218ZM212 740L160 663H48L154 800H271L377 663H265L212 740Z" />
<glyph unicode="&#xc3;" glyph-name="Atilde" horiz-adv-x="431" d="M307 0L283 131H145L123 0H8L135 631H290L423 0H307ZM160 218H267L212 520L160 218ZM144 683V663H50V695Q50 737 69 758T134 780H146Q174 780 208 759T251 737Q269 737 269 760V780H363V745Q363
704 344 684T279 663H269Q241 663 206 684T162 706Q144 706 144 683Z" />
<glyph unicode="&#xc4;" glyph-name="Adieresis" horiz-adv-x="431" d="M307 0L283 131H145L123 0H8L135 631H290L423 0H307ZM160 218H267L212 520L160 218ZM168 767V662H52V767H168ZM372 767V662H256V767H372Z" />
<glyph unicode="&#xc5;" glyph-name="Aring" horiz-adv-x="431" d="M307 0L283 131H145L123 0H8L135 631H290L423 0H307ZM160 218H267L212 520L160 218ZM249 662H177Q96 662 96 737V754Q96 830 177 830H249Q330 830 330 754V737Q330 662 249 662ZM171 750V741Q171
727 176 723T196 718H230Q245 718 250 722T255 741V750Q255 764 250 769T230 774H196Q181 774 176 769T171 750Z" />
<glyph unicode="&#xc6;" glyph-name="AE" horiz-adv-x="634" d="M421 88H614V0H310V139H172L122 0H8L247 631H606V543H421V368H576V279H421V88ZM310 225V518L204 225H310Z" />
<glyph unicode="&#xc7;" glyph-name="Ccedilla" d="M378 422H262V520Q262 536 256 541T234 547H187Q171 547 165 542T159 520V110Q159 94 165 89T187 83H234Q250 83 256 88T262 110V206H378V98Q378 -1 269 -1H152Q43 -1 43 98V532Q43 631 152 631H269Q378 631
378 532V422ZM158 -95V-49H265V-104Q265 -208 150 -208H83V-125H127Q158 -125 158 -95Z" />
<glyph unicode="&#xc8;" glyph-name="Egrave" horiz-adv-x="374" d="M164 88H356V0H48V631H348V543H164V368H319V279H164V88ZM246 663H152L39 800H160L246 663Z" />
<glyph unicode="&#xc9;" glyph-name="Eacute" horiz-adv-x="374" d="M164 279V88H356V0H48V631H348V543H164V368H319V279H164ZM356 800L243 663H149L235 800H356Z" />
<glyph unicode="&#xca;" glyph-name="Ecircumflex" horiz-adv-x="374" d="M164 279V88H356V0H48V631H348V543H164V368H319V279H164ZM200 740L148 663H36L142 800H259L365 663H253L200 740Z" />
<glyph unicode="&#xcb;" glyph-name="Edieresis" horiz-adv-x="396" d="M242 767H358V662H242V767ZM164 279V88H356V0H48V631H348V543H164V368H319V279H164ZM154 767V662H38V767H154Z" />
<glyph unicode="&#xcc;" glyph-name="Igrave" horiz-adv-x="223" d="M72 800L158 663H64L-49 800H72ZM54 631H169V0H54V631Z" />
<glyph unicode="&#xcd;" glyph-name="Iacute" horiz-adv-x="223" d="M65 663L151 800H272L159 663H65ZM54 631H169V0H54V631Z" />
<glyph unicode="&#xce;" glyph-name="Icircumflex" horiz-adv-x="223" d="M-53 663L53 800H170L276 663H164L111 740L59 663H-53ZM54 631H169V0H54V631Z" />
<glyph unicode="&#xcf;" glyph-name="Idieresis" horiz-adv-x="223" d="M54 631H169V0H54V631ZM155 662V767H271V662H155ZM-49 662V767H67V662H-49Z" />
<glyph unicode="&#xd0;" glyph-name="Eth" horiz-adv-x="445" d="M53 631H293Q402 631 402 532V99Q402 0 293 0H53V277H1V360H53V631ZM286 111V520Q286 536 280 541T258 547H168V360H237V277H168V84H258Q274 84 280 89T286 111Z" />
<glyph unicode="&#xd1;" glyph-name="Ntilde" horiz-adv-x="446" d="M286 663Q258 663 223 684T179 706Q161 706 161 683V663H67V695Q67 737 86 758T151 780H163Q191 780 225 759T268 737Q286 737 286 760V780H380V745Q380 704 361 684T296 663H286ZM292 631H397V0H289L154
418V0H48V631H159L292 219V631Z" />
<glyph unicode="&#xd2;" glyph-name="Ograve" horiz-adv-x="429" d="M153 631H275Q384 631 384 532V99Q384 0 275 0H153Q44 0 44 99V532Q44 631 153 631ZM269 115V516Q269 532 263 537T241 543H188Q171 543 165 538T159 516V115Q159 99 165 94T188 88H241Q257
88 263 93T269 115ZM254 663H160L47 800H168L254 663Z" />
<glyph unicode="&#xd3;" glyph-name="Oacute" horiz-adv-x="429" d="M153 631H275Q384 631 384 532V99Q384 0 275 0H153Q44 0 44 99V532Q44 631 153 631ZM269 115V516Q269 532 263 537T241 543H188Q171 543 165 538T159 516V115Q159 99 165 94T188 88H241Q257
88 263 93T269 115ZM371 800L258 663H164L250 800H371Z" />
<glyph unicode="&#xd4;" glyph-name="Ocircumflex" horiz-adv-x="429" d="M153 631H275Q384 631 384 532V99Q384 0 275 0H153Q44 0 44 99V532Q44 631 153 631ZM269 115V516Q269 532 263 537T241 543H188Q171 543 165 538T159 516V115Q159 99 165 94T188 88H241Q257
88 263 93T269 115ZM212 740L160 663H48L154 800H271L377 663H265L212 740Z" />
<glyph unicode="&#xd5;" glyph-name="Otilde" horiz-adv-x="429" d="M153 631H275Q384 631 384 532V99Q384 0 275 0H153Q44 0 44 99V532Q44 631 153 631ZM269 115V516Q269 532 263 537T241 543H188Q171 543 165 538T159 516V115Q159 99 165 94T188 88H241Q257
88 263 93T269 115ZM150 683V663H56V695Q56 737 75 758T140 780H152Q180 780 214 759T257 737Q275 737 275 760V780H369V745Q369 704 350 684T285 663H275Q247 663 212 684T168 706Q150 706 150 683Z" />
<glyph unicode="&#xd6;" glyph-name="Odieresis" horiz-adv-x="422" d="M153 631H275Q384 631 384 532V99Q384 0 275 0H153Q44 0 44 99V532Q44 631 153 631ZM269 115V516Q269 532 263 537T241 543H188Q171 543 165 538T159 516V115Q159 99 165 94T188 88H241Q257
88 263 93T269 115ZM170 767V662H54V767H170ZM374 767V662H258V767H374Z" />
<glyph unicode="&#xd7;" glyph-name="multiply" horiz-adv-x="408" d="M385 424L272 311L385 198L317 130L204 243L91 130L23 198L136 311L23 424L91 492L204 379L317 492L385 424Z" />
<glyph unicode="&#xd8;" glyph-name="Oslash" horiz-adv-x="434" d="M387 532V99Q387 0 278 0H156Q134 0 114 5L103 -20H44L67 32Q47 56 47 99V532Q47 631 156 631H278Q302 631 322 626L333 651H393L369 596Q387 572 387 532ZM157 522V242L277 521V522Q277 538
271 543T248 549H186Q169 549 163 544T157 522ZM277 109V383L157 105Q158 92 164 87T186 82H248Q265 82 271 87T277 109Z" />
<glyph unicode="&#xd9;" glyph-name="Ugrave" horiz-adv-x="434" d="M272 631H387V99Q387 0 278 0H156Q47 0 47 99V631H162V115Q162 99 168 94T190 88H243Q260 88 266 93T272 115V631ZM263 663H169L56 800H177L263 663Z" />
<glyph unicode="&#xda;" glyph-name="Uacute" horiz-adv-x="434" d="M272 631H387V99Q387 0 278 0H156Q47 0 47 99V631H162V115Q162 99 168 94T190 88H243Q260 88 266 93T272 115V631ZM373 800L260 663H166L252 800H373Z" />
<glyph unicode="&#xdb;" glyph-name="Ucircumflex" horiz-adv-x="434" d="M272 631H387V99Q387 0 278 0H156Q47 0 47 99V631H162V115Q162 99 168 94T190 88H243Q260 88 266 93T272 115V631ZM216 740L164 663H52L158 800H275L381 663H269L216 740Z" />
<glyph unicode="&#xdc;" glyph-name="Udieresis" horiz-adv-x="434" d="M272 631H387V99Q387 0 278 0H156Q47 0 47 99V631H162V115Q162 99 168 94T190 88H243Q260 88 266 93T272 115V631ZM172 767V662H56V767H172ZM376 767V662H260V767H376Z" />
<glyph unicode="&#xdd;" glyph-name="Yacute" horiz-adv-x="407" d="M265 0H150V200L3 631H120L206 307L287 631H404L265 203V0ZM362 800L249 663H155L241 800H362Z" />
<glyph unicode="&#xde;" glyph-name="Thorn" horiz-adv-x="428" d="M166 510H278Q387 510 387 411V219Q387 121 278 121H166V0H51V631H166V510ZM272 233V397Q272 413 266 418T244 424H166V206H244Q260 206 266 211T272 233Z" />
<glyph unicode="&#xdf;" glyph-name="germandbls" horiz-adv-x="535" d="M218 155H331V110Q331 94 336 89T357 83H370Q386 83 392 88T398 110V179Q398 195 392 200T370 206H324Q268 206 244 231T219 305V351Q219 445 322 445Q342 445 348 449T354 468V495Q354
511 349 517T327 523H189Q173 523 167 517T160 495V0H45V514Q45 562 69 587T150 612H367Q472 612 472 517V451Q472 408 451 389T378 369H358Q341 369 335 364T329 342V314Q329 298 335 293T358 287H402Q510 287 510 188V99Q510 50 486 25T406 0H324Q218 1 218 99V155Z"
/>
<glyph unicode="&#xe0;" glyph-name="agrave" horiz-adv-x="394" d="M240 491H352V0H238V42Q223 0 169 0H138Q36 0 36 99V392Q36 491 138 491H169Q228 491 240 443V491ZM177 88H207Q238 88 238 121V370Q238 403 207 403H177Q161 403 155 398T149 376V115Q149 99
155 94T177 88ZM271 523H177L64 660H185L271 523Z" />
<glyph unicode="&#xe1;" glyph-name="aacute" horiz-adv-x="394" d="M240 491H352V0H238V42Q223 0 169 0H138Q36 0 36 99V392Q36 491 138 491H169Q228 491 240 443V491ZM177 88H207Q238 88 238 121V370Q238 403 207 403H177Q161 403 155 398T149 376V115Q149 99
155 94T177 88ZM362 660L249 523H155L241 660H362Z" />
<glyph unicode="&#xe2;" glyph-name="acircumflex" horiz-adv-x="394" d="M240 491H352V0H238V42Q223 0 169 0H138Q36 0 36 99V392Q36 491 138 491H169Q228 491 240 443V491ZM177 88H207Q238 88 238 121V370Q238 403 207 403H177Q161 403 155 398T149 376V115Q149
99 155 94T177 88ZM199 600L147 523H35L141 660H258L364 523H252L199 600Z" />
<glyph unicode="&#xe3;" glyph-name="atilde" horiz-adv-x="394" d="M240 491H352V0H238V42Q223 0 169 0H138Q36 0 36 99V392Q36 491 138 491H169Q228 491 240 443V491ZM177 88H207Q238 88 238 121V370Q238 403 207 403H177Q161 403 155 398T149 376V115Q149 99
155 94T177 88ZM131 553V533H37V565Q37 607 56 628T121 650H133Q161 650 195 629T238 607Q256 607 256 630V650H350V615Q350 574 331 554T266 533H256Q228 533 193 554T149 576Q131 576 131 553Z" />
<glyph unicode="&#xe4;" glyph-name="adieresis" horiz-adv-x="394" d="M244 646H360V541H244V646ZM240 491H352V0H238V42Q223 0 169 0H138Q36 0 36 99V392Q36 491 138 491H169Q228 491 240 443V491ZM177 88H207Q238 88 238 121V370Q238 403 207 403H177Q161 403
155 398T149 376V115Q149 99 155 94T177 88ZM156 646V541H40V646H156Z" />
<glyph unicode="&#xe5;" glyph-name="aring" horiz-adv-x="394" d="M240 491H352V0H238V42Q223 0 169 0H138Q36 0 36 99V392Q36 491 138 491H169Q228 491 240 443V491ZM177 88H207Q238 88 238 121V370Q238 403 207 403H177Q161 403 155 398T149 376V115Q149 99
155 94T177 88ZM236 529H164Q83 529 83 604V621Q83 697 164 697H236Q317 697 317 621V604Q317 529 236 529ZM158 617V608Q158 594 163 590T183 585H217Q232 585 237 589T242 608V617Q242 631 237 636T217 641H183Q168 641 163 636T158 617Z" />
<glyph unicode="&#xe6;" glyph-name="ae" horiz-adv-x="609" d="M559 211H354V113Q354 97 360 92T383 86H425Q441 86 447 91T453 113V149H565V99Q565 0 456 0H383Q316 0 295 46Q287 26 265 13T213 0H143Q41 0 41 99V204L243 287V373Q242 403 212 403H182Q166 403
160 398T154 376V311H41V392Q41 491 143 491H213Q242 491 264 478T295 445Q316 491 384 491H457Q566 491 566 392V221H559V211ZM427 405H383Q366 405 360 400T354 378V288H455V378Q455 394 449 399T427 405ZM182 88H212Q242 88 243 118V206L154 170V115Q154 99
160 94T182 88Z" />
<glyph unicode="&#xe7;" glyph-name="ccedilla" horiz-adv-x="380" d="M352 326H241V376Q241 392 235 397T213 403H177Q161 403 155 398T149 376V115Q149 99 155 94T177 88H213Q229 88 235 93T241 115V166H352V99Q352 0 243 0H145Q36 0 36 99V392Q36 491 145 491H243Q352
491 352 392V326ZM145 -95V-49H252V-104Q252 -208 137 -208H70V-125H114Q145 -125 145 -95Z" />
<glyph unicode="&#xe8;" glyph-name="egrave" horiz-adv-x="392" d="M147 491H253Q361 491 361 392V213H148V112Q148 96 153 91T176 85H222Q238 85 244 90T250 112V149H360V99Q360 0 251 0H147Q38 0 38 99V392Q38 491 147 491ZM148 286H252V380Q252 396 246 401T224
407H176Q160 407 154 402T148 380V286ZM239 523H145L32 660H153L239 523Z" />
<glyph unicode="&#xe9;" glyph-name="eacute" horiz-adv-x="392" d="M147 491H253Q361 491 361 392V213H148V112Q148 96 153 91T176 85H222Q238 85 244 90T250 112V149H360V99Q360 0 251 0H147Q38 0 38 99V392Q38 491 147 491ZM148 286H252V380Q252 396 246 401T224
407H176Q160 407 154 402T148 380V286ZM359 660L246 523H152L238 660H359Z" />
<glyph unicode="&#xea;" glyph-name="ecircumflex" horiz-adv-x="391" d="M147 491H253Q361 491 361 392V213H148V112Q148 96 153 91T176 85H222Q238 85 244 90T250 112V149H360V99Q360 0 251 0H147Q38 0 38 99V392Q38 491 147 491ZM148 286H252V380Q252 396 246
401T224 407H176Q160 407 154 402T148 380V286ZM201 600L149 523H37L143 660H260L366 523H254L201 600Z" />
<glyph unicode="&#xeb;" glyph-name="edieresis" horiz-adv-x="391" d="M147 491H253Q361 491 361 392V213H148V112Q148 96 153 91T176 85H222Q238 85 244 90T250 112V149H360V99Q360 0 251 0H147Q38 0 38 99V392Q38 491 147 491ZM148 286H252V380Q252 396 246
401T224 407H176Q160 407 154 402T148 380V286ZM153 646V541H37V646H153ZM357 646V541H241V646H357Z" />
<glyph unicode="&#xec;" glyph-name="igrave" horiz-adv-x="199" d="M61 660L147 523H53L-60 660H61ZM156 0H43V491H156V0Z" />
<glyph unicode="&#xed;" glyph-name="iacute" horiz-adv-x="199" d="M49 523L135 660H256L143 523H49ZM156 0H43V491H156V0Z" />
<glyph unicode="&#xee;" glyph-name="icircumflex" horiz-adv-x="199" d="M-66 523L40 660H157L263 523H151L98 600L46 523H-66ZM156 0H43V491H156V0Z" />
<glyph unicode="&#xef;" glyph-name="idieresis" horiz-adv-x="199" d="M142 541V646H258V541H142ZM-62 541V646H54V541H-62ZM156 0H43V491H156V0Z" />
<glyph unicode="&#xf0;" glyph-name="eth" horiz-adv-x="412" d="M367 308V99Q367 0 258 0H145Q36 0 36 99V320Q36 419 145 419H234Q219 461 189 507L89 473V537L149 557Q114 597 69 631H226Q245 614 261 595L350 625V561L298 544Q367 437 367 308ZM255 115V303Q255
314 253 336H177Q160 336 155 330T149 308V115Q149 99 155 94T177 88H227Q243 88 249 93T255 115Z" />
<glyph unicode="&#xf1;" glyph-name="ntilde" horiz-adv-x="399" d="M226 491H256Q359 491 359 392V0H245V376Q245 392 239 397T217 403H187Q156 403 156 370V0H43V491H155V446Q169 491 226 491ZM129 553V533H35V565Q35 607 54 628T119 650H131Q159 650 193 629T236
607Q254 607 254 630V650H348V615Q348 574 329 554T264 533H254Q226 533 191 554T147 576Q129 576 129 553Z" />
<glyph unicode="&#xf2;" glyph-name="ograve" horiz-adv-x="402" d="M145 491H258Q364 491 364 392V99Q364 0 258 0H145Q38 0 38 99V392Q38 491 145 491ZM253 112V379Q253 395 247 400T224 406H178Q161 406 155 401T149 379V112Q149 96 155 91T178 85H224Q241
85 247 90T253 112ZM244 523H150L37 660H158L244 523Z" />
<glyph unicode="&#xf3;" glyph-name="oacute" horiz-adv-x="402" d="M145 491H258Q364 491 364 392V99Q364 0 258 0H145Q38 0 38 99V392Q38 491 145 491ZM253 112V379Q253 395 247 400T224 406H178Q161 406 155 401T149 379V112Q149 96 155 91T178 85H224Q241
85 247 90T253 112ZM361 660L248 523H154L240 660H361Z" />
<glyph unicode="&#xf4;" glyph-name="ocircumflex" horiz-adv-x="402" d="M145 491H258Q364 491 364 392V99Q364 0 258 0H145Q38 0 38 99V392Q38 491 145 491ZM253 112V379Q253 395 247 400T224 406H178Q161 406 155 401T149 379V112Q149 96 155 91T178 85H224Q241
85 247 90T253 112ZM199 600L147 523H35L141 660H258L364 523H252L199 600Z" />
<glyph unicode="&#xf5;" glyph-name="otilde" horiz-adv-x="402" d="M145 491H258Q364 491 364 392V99Q364 0 258 0H145Q38 0 38 99V392Q38 491 145 491ZM253 112V379Q253 395 247 400T224 406H178Q161 406 155 401T149 379V112Q149 96 155 91T178 85H224Q241
85 247 90T253 112ZM133 553V533H39V565Q39 607 58 628T123 650H135Q163 650 197 629T240 607Q258 607 258 630V650H352V615Q352 574 333 554T268 533H258Q230 533 195 554T151 576Q133 576 133 553Z" />
<glyph unicode="&#xf6;" glyph-name="odieresis" horiz-adv-x="402" d="M145 491H258Q364 491 364 392V99Q364 0 258 0H145Q38 0 38 99V392Q38 491 145 491ZM253 112V379Q253 395 247 400T224 406H178Q161 406 155 401T149 379V112Q149 96 155 91T178 85H224Q241
85 247 90T253 112ZM157 646V541H41V646H157ZM361 646V541H245V646H361Z" />
<glyph unicode="&#xf7;" glyph-name="divide" horiz-adv-x="447" d="M168 214H279V118H168V214ZM168 511H279V416H168V511ZM25 270V359H422V270H25Z" />
<glyph unicode="&#xf8;" glyph-name="oslash" horiz-adv-x="408" d="M367 392V99Q367 0 260 0H147Q124 0 108 4L96 -20H36L62 30Q41 52 41 99V392Q41 491 147 491H260Q284 491 300 487L312 511H372L346 461Q367 437 367 392ZM149 384V197L256 403Q251 412 230
412H178Q161 412 155 407T149 384ZM259 107V294L152 88Q157 79 178 79H230Q247 79 253 85T259 107Z" />
<glyph unicode="&#xf9;" glyph-name="ugrave" horiz-adv-x="399" d="M243 491H357V0H245V49Q233 0 174 0H143Q41 0 41 99V491H154V115Q154 99 160 94T182 88H212Q243 88 243 121V491ZM249 523H155L42 660H163L249 523Z" />
<glyph unicode="&#xfa;" glyph-name="uacute" horiz-adv-x="399" d="M243 491H357V0H245V49Q233 0 174 0H143Q41 0 41 99V491H154V115Q154 99 160 94T182 88H212Q243 88 243 121V491ZM355 660L242 523H148L234 660H355Z" />
<glyph unicode="&#xfb;" glyph-name="ucircumflex" horiz-adv-x="397" d="M243 491H357V0H245V49Q233 0 174 0H143Q41 0 41 99V491H154V115Q154 99 160 94T182 88H212Q243 88 243 121V491ZM196 600L144 523H32L138 660H255L361 523H249L196 600Z" />
<glyph unicode="&#xfc;" glyph-name="udieresis" horiz-adv-x="404" d="M243 491H357V0H245V49Q233 0 174 0H143Q41 0 41 99V491H154V115Q154 99 160 94T182 88H212Q243 88 243 121V491ZM151 646V541H35V646H151ZM355 646V541H239V646H355Z" />
<glyph unicode="&#xfd;" glyph-name="yacute" horiz-adv-x="377" d="M145 523L231 660H352L239 523H145ZM126 -136H59V-49H110Q154 -49 164 -14L172 18H118L6 491H123L193 113L258 491H372L262 -30Q236 -136 126 -136Z" />
<glyph unicode="&#xfe;" glyph-name="thorn" horiz-adv-x="399" d="M223 491H253Q356 491 356 392V99Q356 0 253 0H223Q169 0 154 42V-136H40V669H152V443Q164 491 223 491ZM243 115V376Q243 392 237 397T214 403H185Q154 403 154 370V121Q154 88 185 88H214Q231
88 237 93T243 115Z" />
<glyph unicode="&#xff;" glyph-name="ydieresis" horiz-adv-x="393" d="M126 -136H59V-49H110Q154 -49 164 -14L172 18H118L6 491H123L193 113L258 491H372L262 -30Q236 -136 126 -136ZM233 541V646H349V541H233ZM29 541V646H145V541H29Z" />
<glyph unicode="&#x2013;" glyph-name="endash" horiz-adv-x="474" d="M31 255V338H396V255H31Z" />
<glyph unicode="&#x2014;" glyph-name="emdash" horiz-adv-x="598" d="M20 255V338H574V255H20Z" />
<glyph unicode="&#x2018;" glyph-name="quoteleft" horiz-adv-x="191" d="M157 354H34V426L121 631H157V354Z" />
<glyph unicode="&#x2019;" glyph-name="quoteright" horiz-adv-x="191" d="M34 631H157V559L70 354H34V631Z" />
<glyph unicode="&#x201a;" glyph-name="quotesinglbase" horiz-adv-x="190" d="M34 135H156V63L72 -142H34V135Z" />
<glyph unicode="&#x201c;" glyph-name="quotedblleft" horiz-adv-x="358" d="M156 354H34V426L121 631H156V354ZM323 354H202V426L288 631H323V354Z" />
<glyph unicode="&#x201d;" glyph-name="quotedblright" horiz-adv-x="358" d="M202 631H323V559L237 354H202V631ZM34 631H156V559L69 354H34V631Z" />
<glyph unicode="&#x201e;" glyph-name="quotedblbase" horiz-adv-x="358" d="M202 135H323V63L237 -142H202V135ZM34 135H156V63L69 -142H34V135Z" />
<glyph unicode="&#x2022;" glyph-name="bullet" horiz-adv-x="396" d="M62 265T62 321T102 417T198 457T294 417T334 321T294 225T198 185T102 225Z" />
<glyph unicode="&#x2039;" glyph-name="guilsinglleft" horiz-adv-x="292" d="M147 102L31 256L147 410H264L148 256L264 102H147Z" />
<glyph unicode="&#x203a;" glyph-name="guilsinglright" horiz-adv-x="293" d="M264 256L148 102H31L147 256L31 410H148L264 256Z" />
</font>
</defs>
</svg>
