<?xml version="1.0" standalone="no"?>
<!DOCTYPE svg PUBLIC "-//W3C//DTD SVG 1.1//EN" "http://www.w3.org/Graphics/SVG/1.1/DTD/svg11.dtd">
<svg xmlns="http://www.w3.org/2000/svg">
<defs >
<font id="NunitoSans" horiz-adv-x="557" ><font-face
    font-family="Nunito Sans"
    units-per-em="1000"
    panose-1="0 0 5 0 0 0 0 0 0 0"
    ascent="1011"
    descent="-353"
    alphabetic="0" />
<glyph unicode=" " glyph-name="space" horiz-adv-x="258" />
<glyph unicode="!" glyph-name="exclam" horiz-adv-x="229" d="M89 185L64 705H165L139 185H89ZM63 102H165V0H63V102Z" />
<glyph unicode="&quot;" glyph-name="quotedbl" horiz-adv-x="421" d="M84 428L62 705H158L138 428H84ZM284 428L262 705H358L338 428H284Z" />
<glyph unicode="#" glyph-name="numbersign" horiz-adv-x="600" d="M565 472H466L421 241H545V182H410L374 0H311L346 182H187L152 0H88L124 182H35V241H135L180 472H55V531H192L226 705H289L255 531H414L448 705H512L478 531H565V472ZM358 241L403 472H244L199 241H358Z" />
<glyph unicode="$" glyph-name="dollar" horiz-adv-x="600" d="M551 112T495 59T345 -6V-115H275V-7Q207 -3 149 19T47 83L78 146Q130 102 183 82T301 62Q380 62 424 95T468 189Q468 225 446 247T389 282T295 309Q219 328 173 347T93 405T60 510Q60 564 87 607T162
678T274 711V820H344V711Q401 706 453 683T543 624L512 561Q424 643 308 643Q232 643 188 609T144 513Q144 471 168 446T229 408T328 378Q401 359 445 342T520 289T551 191Q551 112 495 59Z" />
<glyph unicode="%" glyph-name="percent" horiz-adv-x="930" d="M286 -25L227 9L644 730L703 696L286 -25ZM145 282T100 336T55 498Q55 604 100 658T225 713Q305 713 350 659T395 498Q395 391 350 337T225 282Q145 282 100 336ZM274 340T297 378T321 498Q321 579
298 617T225 655Q176 655 152 617T128 498Q128 416 152 378T225 340Q274 340 297 378ZM625 -7T580 47T535 209Q535 315 580 369T705 424Q786 424 830 370T875 209Q875 102 831 48T705 -7Q625 -7 580 47ZM755 51T778 88T802 209Q802 290 778 328T705 366Q656 366
633 328T609 209Q609 127 632 89T705 51Q755 51 778 88Z" />
<glyph unicode="&amp;" glyph-name="ampersand" horiz-adv-x="664" d="M576 0L494 89Q451 42 397 18T279 -7Q212 -7 161 16T81 81T52 177Q52 241 90 291T215 394Q169 447 151 483T133 558Q133 628 180 670T306 712Q379 712 421 674T464 570Q464 518 433 477T322
384L489 201Q534 290 537 414H608Q604 257 538 148L673 0H576ZM263 650T237 625T210 558Q210 529 224 503T278 431Q344 472 368 502T393 566Q393 604 370 627T307 650Q263 650 237 625ZM331 59T374 79T449 138L259 346Q189 303 161 265T132 179Q132 124 172 92T281
59Q331 59 374 79Z" />
<glyph unicode="&apos;" glyph-name="quotesingle" horiz-adv-x="221" d="M84 428L62 705H158L138 428H84Z" />
<glyph unicode="(" glyph-name="parenleft" horiz-adv-x="314" d="M159 -75T131 35T103 263Q103 380 131 490T223 719L279 696Q229 578 208 473T186 263Q186 158 207 53T279 -170L223 -193Q159 -75 131 35Z" />
<glyph unicode=")" glyph-name="parenright" horiz-adv-x="314" d="M35 -170Q85 -52 106 53T128 263Q128 368 107 473T35 696L91 719Q155 600 183 490T211 263Q211 146 183 36T91 -193L35 -170Z" />
<glyph unicode="*" glyph-name="asterisk" horiz-adv-x="450" d="M416 565V503L269 508L347 384L294 353L225 484L155 353L103 384L181 508L33 503V565L181 560L103 684L156 715L225 585L294 715L347 684L269 560L416 565Z" />
<glyph unicode="+" glyph-name="plus" horiz-adv-x="600" d="M544 316V253H331V41H269V253H56V316H269V529H331V316H544Z" />
<glyph unicode="," glyph-name="comma" horiz-adv-x="229" d="M165 102V30Q165 -12 152 -46T105 -114L67 -85Q106 -42 111 0H63V102H165Z" />
<glyph unicode="-" glyph-name="hyphen" horiz-adv-x="425" d="M72 233V300H352V233H72Z" />
<glyph unicode="." glyph-name="period" horiz-adv-x="229" d="M63 102H165V0H63V102Z" />
<glyph unicode="/" glyph-name="slash" horiz-adv-x="283" d="M47 -65L-20 -43L235 753L302 731L47 -65Z" />
<glyph unicode="0" glyph-name="zero" horiz-adv-x="600" d="M179 -8T116 84T53 352Q53 529 116 621T300 713Q421 713 484 622T547 353Q547 176 484 84T300 -8Q179 -8 116 84ZM384 61T424 132T464 353Q464 504 425 573T300 643Q216 643 176 573T136 353Q136 203
176 132T300 61Q384 61 424 132Z" />
<glyph unicode="1" glyph-name="one" horiz-adv-x="600" d="M367 69H522V0H130V69H285V603L161 525L123 588L308 705H367V69Z" />
<glyph unicode="2" glyph-name="two" horiz-adv-x="600" d="M539 69V0H85V62L332 334Q382 390 404 434T427 524Q427 582 393 613T297 644Q195 644 97 563L66 626Q108 666 171 689T299 713Q396 713 452 663T509 528Q509 467 482 411T391 286L191 69H539Z" />
<glyph unicode="3" glyph-name="three" horiz-adv-x="600" d="M459 344T492 301T525 191Q525 99 463 46T293 -7Q225 -7 162 16T56 80L87 143Q183 62 291 62Q366 62 405 95T444 194Q444 323 282 323H201V392H266Q344 392 386 426T428 526Q428 583 394 613T297 644Q195
644 97 563L66 626Q109 667 171 690T300 713Q396 713 452 665T509 534Q509 473 480 428T397 362Q459 344 492 301Z" />
<glyph unicode="4" glyph-name="four" horiz-adv-x="600" d="M564 221V153H458V0H377V153H51V215L391 705H458V221H564ZM136 221H377V568L136 221Z" />
<glyph unicode="5" glyph-name="five" horiz-adv-x="600" d="M397 442T446 414T523 336T550 219Q550 152 521 101T437 22T311 -7Q247 -7 185 16T79 80L110 143Q208 62 311 62Q385 62 427 104T469 218Q469 288 428 331T317 374Q216 374 156 292H99V705H522V637H180V386Q208
413 246 427T330 442Q397 442 446 414Z" />
<glyph unicode="6" glyph-name="six" horiz-adv-x="599" d="M394 443T444 415T522 336T550 219Q550 154 521 102T440 21T323 -8Q195 -8 126 81T56 335Q56 454 88 539T182 668T328 713Q389 713 447 691T549 626L518 563Q468 605 423 624T330 644Q239 644 189 564T138
336V321Q161 377 212 410T330 443Q394 443 444 415ZM387 61T428 104T469 218Q469 288 428 331T318 374Q249 374 206 331T162 218Q162 148 205 105T319 61Q387 61 428 104Z" />
<glyph unicode="7" glyph-name="seven" horiz-adv-x="600" d="M67 705H533V644L203 0H114L443 636H67V705Z" />
<glyph unicode="8" glyph-name="eight" horiz-adv-x="600" d="M484 343T518 297T553 187Q553 96 487 45T300 -7Q179 -7 113 44T47 187Q47 252 82 298T179 362Q126 382 95 425T64 526Q64 612 126 662T300 713Q411 713 473 663T536 526Q536 468 505 425T422 362Q484
343 518 297ZM145 458T184 425T300 392Q376 392 415 425T455 520Q455 579 416 612T300 645Q224 645 185 612T145 520Q145 458 184 425ZM472 61T472 192Q472 323 300 323Q128 323 128 192Q128 61 300 61Q472 61 472 192Z" />
<glyph unicode="9" glyph-name="nine" horiz-adv-x="600" d="M406 713T475 624T545 370Q545 191 473 92T272 -8Q212 -8 154 14T52 79L83 142Q133 100 178 81T271 61Q362 61 412 141T462 369V382Q439 326 388 294T271 262Q207 262 157 290T79 369T51 486Q51 551
80 603T161 684T278 713Q406 713 475 624ZM352 331T395 374T439 487Q439 557 396 600T282 644Q214 644 173 601T132 487Q132 416 173 374T283 331Q352 331 395 374Z" />
<glyph unicode=":" glyph-name="colon" horiz-adv-x="229" d="M63 487H165V384H63V487ZM63 102H165V0H63V102Z" />
<glyph unicode=";" glyph-name="semicolon" horiz-adv-x="229" d="M63 487H165V384H63V487ZM63 102H165V30Q165 -12 152 -46T105 -114L67 -85Q106 -42 111 0H63V102Z" />
<glyph unicode="&lt;" glyph-name="less" horiz-adv-x="600" d="M544 536V468L133 284L544 101V32L56 253V317L544 536Z" />
<glyph unicode="=" glyph-name="equal" horiz-adv-x="600" d="M544 416V353H56V416H544ZM544 216V153H56V216H544Z" />
<glyph unicode="&gt;" glyph-name="greater" horiz-adv-x="600" d="M56 536L544 317V253L56 32V101L467 284L56 468V536Z" />
<glyph unicode="?" glyph-name="question" horiz-adv-x="443" d="M183 209Q183 271 205 314T269 411Q303 454 319 484T336 551Q336 594 306 618T224 643Q177 643 128 623T32 563L0 626Q43 666 105 689T228 713Q313 713 366 670T419 557Q419 504 396 465T327 374Q284
325 261 288T233 202L231 184H183V209ZM157 0V102H259V0H157Z" />
<glyph unicode="@" glyph-name="at" horiz-adv-x="926" d="M344 -152T248 -99T101 50T49 273Q49 405 104 504T256 657T473 711Q601 711 692 659T830 522T877 344Q877 246 848 184T773 93T676 64Q623 64 593 87T558 153H556Q531 112 494 88T406 64Q340 64 299 110T258
239Q258 307 284 367T359 463T469 499Q516 499 551 477T597 418H598L610 487H675L628 216Q624 188 624 180Q624 146 640 132T688 118Q716 118 745 140T794 213T814 344Q814 423 776 493T661 606T473 650Q371 650 290 605T161 474T114 273Q114 163 157 81T281 -46T473
-91Q558 -91 619 -67T714 0H801Q759 -70 674 -111T473 -152Q344 -152 248 -99ZM469 118T505 148T561 227T580 328Q580 384 553 413T478 443Q430 443 395 414T341 339T322 242Q322 183 350 151T419 118Q469 118 505 148Z" />
<glyph unicode="A" glyph-name="A" horiz-adv-x="727" d="M626 0L548 181H180L102 0H18L328 705H399L709 0H626ZM209 249H519L364 610L209 249Z" />
<glyph unicode="B" glyph-name="B" horiz-adv-x="674" d="M548 346T581 302T615 192Q615 99 554 50T381 0H87V705H370Q479 705 539 657T599 521Q599 464 570 423T487 362Q548 346 581 302ZM168 392H358Q437 392 477 424T518 517Q518 637 358 637H168V392ZM456
68T495 98T535 194Q535 324 373 324H168V68H373Q456 68 495 98Z" />
<glyph unicode="C" glyph-name="C" horiz-adv-x="677" d="M288 -8T214 35T101 160T61 353Q61 464 100 545T214 669T388 713Q461 713 522 691T628 624L597 561Q546 604 497 623T389 642Q273 642 210 567T146 353Q146 214 209 139T389 63Q448 63 497 82T597 144L628
81Q583 37 522 15T388 -8Q288 -8 214 35Z" />
<glyph unicode="D" glyph-name="D" horiz-adv-x="739" d="M87 705H324Q493 705 585 614T678 353Q678 184 586 92T324 0H87V705ZM319 70Q593 70 593 353Q593 635 319 635H169V70H319Z" />
<glyph unicode="E" glyph-name="E" horiz-adv-x="582" d="M87 0V705H533V637H168V392H513V324H168V68H533V0H87Z" />
<glyph unicode="F" glyph-name="F" d="M87 0V705H523V636H168V393H503V324H168V0H87Z" />
<glyph unicode="G" glyph-name="G" horiz-adv-x="724" d="M645 367V41Q603 19 536 6T399 -8Q294 -8 218 35T102 159T61 353Q61 465 101 546T216 670T393 713Q467 713 529 691T635 624L604 561Q553 605 504 624T393 643Q274 643 210 568T146 353Q146 210 211 136T401
61Q492 61 570 88V303H395V367H645Z" />
<glyph unicode="H" glyph-name="H" horiz-adv-x="758" d="M590 705H671V0H590V323H168V0H87V705H168V393H590V705Z" />
<glyph unicode="I" glyph-name="I" horiz-adv-x="256" d="M87 0V705H169V0H87Z" />
<glyph unicode="J" glyph-name="J" horiz-adv-x="326" d="M-8 62L52 66Q102 70 129 101T157 188V705H239V187Q239 100 194 51T63 -3L-2 -7L-8 62Z" />
<glyph unicode="K" glyph-name="K" horiz-adv-x="628" d="M638 0H532L169 335V0H87V705H169V381L515 705H619L251 362L638 0Z" />
<glyph unicode="L" glyph-name="L" horiz-adv-x="540" d="M87 0V705H169V70H522V0H87Z" />
<glyph unicode="M" glyph-name="M" horiz-adv-x="841" d="M686 705H753V0H678L679 546L450 112H392L162 542L163 0H87V705H155L422 194L686 705Z" />
<glyph unicode="N" glyph-name="N" horiz-adv-x="739" d="M575 705H652V0H589L164 567V0H87V705H150L575 138V705Z" />
<glyph unicode="O" glyph-name="O" horiz-adv-x="764" d="M284 -8T212 36T100 161T61 352Q61 463 99 544T210 669T382 713Q481 713 553 670T664 545T703 353Q703 243 664 162T553 36T382 -8Q284 -8 212 36ZM494 62T556 137T619 353Q619 493 557 568T382 643Q270
643 208 568T145 353Q145 214 207 138T382 62Q494 62 556 137Z" />
<glyph unicode="P" glyph-name="P" horiz-adv-x="645" d="M87 705H366Q477 705 538 651T600 498Q600 399 538 344T366 289H169V0H87V705ZM358 357Q519 357 519 498Q519 637 358 637H169V357H358Z" />
<glyph unicode="Q" glyph-name="Q" horiz-adv-x="764" d="M527 6T544 -10T579 -56L646 -164L577 -200L494 -65Q459 -8 382 -8Q284 -8 212 36T100 161T61 352Q61 463 99 544T210 669T382 713Q480 713 552 670T664 545T703 353Q703 225 652 137T505 13Q527 6 544
-10ZM145 214T207 138T382 62Q494 62 556 137T619 353Q619 493 557 568T382 643Q270 643 208 568T145 353Q145 214 207 138Z" />
<glyph unicode="R" glyph-name="R" horiz-adv-x="686" d="M642 0H552L432 226Q410 267 381 282T300 298H168V0H87V705H377Q492 705 552 654T613 504Q613 422 567 372T434 308Q461 300 481 281T519 230L642 0ZM370 366Q452 366 492 400T533 503Q533 571 493 604T370
637H168V366H370Z" />
<glyph unicode="S" glyph-name="S" horiz-adv-x="617" d="M146 -8T47 81L79 144Q131 100 185 81T312 62Q397 62 443 95T489 188Q489 223 467 245T409 280T312 307Q230 326 178 347T93 407T60 509Q60 569 91 615T181 687T317 713Q390 713 453 690T561 624L530 561Q480
604 429 623T317 643Q235 643 189 609T142 512Q142 459 183 432T307 386Q398 364 450 346T536 290T571 191Q571 131 540 86T449 17T311 -8Q146 -8 47 81Z" />
<glyph unicode="T" glyph-name="T" horiz-adv-x="598" d="M257 0V635H12V705H586V635H340V0H257Z" />
<glyph unicode="U" glyph-name="U" horiz-adv-x="724" d="M224 -8T153 64T82 276V705H163V269Q163 166 213 114T362 62Q460 62 510 114T560 269V705H642V276Q642 137 571 65T362 -8Q224 -8 153 64Z" />
<glyph unicode="V" glyph-name="V" horiz-adv-x="691" d="M605 705H689L381 0H310L2 705H88L346 103L605 705Z" />
<glyph unicode="W" glyph-name="W" horiz-adv-x="1101" d="M987 705H1067L821 0H751L550 577L349 0H280L33 705H116L316 116L521 705L583 704L785 115L987 705Z" />
<glyph unicode="X" glyph-name="X" horiz-adv-x="646" d="M370 360L638 0H541L323 299L105 0H8L276 361L21 705H118L324 422L530 705H626L370 360Z" />
<glyph unicode="Y" glyph-name="Y" horiz-adv-x="601" d="M618 705L341 333V0H259V334L-18 705H77L301 401L525 705H618Z" />
<glyph unicode="Z" glyph-name="Z" horiz-adv-x="590" d="M139 69H553V0H45V61L448 636H45V705H543V645L139 69Z" />
<glyph unicode="[" glyph-name="bracketleft" horiz-adv-x="314" d="M109 -180V705H306V641H189V-116H306V-180H109Z" />
<glyph unicode="\" glyph-name="backslash" horiz-adv-x="282" d="M235 -65L-20 731L47 753L302 -43L235 -65Z" />
<glyph unicode="]" glyph-name="bracketright" horiz-adv-x="314" d="M205 -180H8V-116H125V641H8V705H205V-180Z" />
<glyph unicode="^" glyph-name="asciicircum" horiz-adv-x="600" d="M552 141H484L300 551L116 141H48L268 629H332L552 141Z" />
<glyph unicode="_" glyph-name="underscore" horiz-adv-x="500" d="M8 -53V0H492V-53H8Z" />
<glyph unicode="`" glyph-name="grave" horiz-adv-x="300" d="M122 551L-14 753H79L178 551H122Z" />
<glyph unicode="a" glyph-name="a" horiz-adv-x="530" d="M366 499T411 452T457 307V0H378V83Q359 40 320 17T230 -7Q183 -7 144 12T81 65T58 140Q58 195 86 225T178 269T356 283H378V316Q378 377 353 404T272 432Q188 432 105 380L78 439Q116 466 169 482T273
499Q366 499 411 452ZM301 57T339 97T378 202V231H360Q272 231 226 224T161 199T141 147Q141 108 169 83T241 57Q301 57 339 97Z" />
<glyph unicode="b" glyph-name="b" horiz-adv-x="582" d="M384 499T433 468T509 380T536 248Q536 172 509 115T433 25T320 -7Q263 -7 221 18T156 89V0H75V705H156V403Q178 449 220 474T320 499Q384 499 433 468ZM375 60T414 109T453 248Q453 335 414 383T304 431Q233
431 195 383T156 246Q156 157 194 109T304 60Q375 60 414 109Z" />
<glyph unicode="c" glyph-name="c" horiz-adv-x="479" d="M209 -7T156 24T75 111T46 244Q46 320 75 377T158 467T284 499Q333 499 380 482T456 435L429 375Q360 431 289 431Q214 431 172 382T130 244Q130 156 172 108T289 60Q360 60 429 116L456 56Q425 27 378
10T281 -7Q209 -7 156 24Z" />
<glyph unicode="d" glyph-name="d" horiz-adv-x="582" d="M507 705V0H426V89Q404 43 362 18T262 -7Q198 -7 149 25T73 114T46 248Q46 323 73 380T149 468T262 499Q319 499 361 474T426 403V705H507ZM349 60T387 108T426 246Q426 335 388 383T278 431Q207 431 168
383T128 248Q128 159 167 110T278 60Q349 60 387 108Z" />
<glyph unicode="e" glyph-name="e" horiz-adv-x="527" d="M483 231H127Q131 146 173 103T292 59Q377 59 448 117L475 58Q443 28 393 11T291 -7Q177 -7 112 60T46 245Q46 320 75 377T156 467T276 499Q373 499 428 436T483 261V231ZM213 436T175 396T129 283H412Q410
357 375 396T277 436Q213 436 175 396Z" />
<glyph unicode="f" glyph-name="f" horiz-adv-x="328" d="M183 487H321V423H183V0H102V423H7V487H102V503Q102 600 150 650T300 706L340 708L346 645L300 642Q239 638 211 608T183 514V487Z" />
<glyph unicode="g" glyph-name="g" horiz-adv-x="586" d="M511 487V33Q511 -76 455 -131T289 -187Q161 -187 74 -121L101 -61Q150 -93 193 -107T289 -121Q359 -121 395 -84T431 26V112Q410 65 367 40T264 15Q200 15 151 45T74 130T46 257Q46 329 73 384T150 469T264
499Q322 499 365 474T430 403V487H511ZM350 82T390 128T430 257Q430 338 391 384T280 431Q209 431 169 385T128 257Q128 175 168 129T280 82Q350 82 390 128Z" />
<glyph unicode="h" glyph-name="h" horiz-adv-x="568" d="M495 499T495 306V0H414V301Q414 369 388 400T303 431Q236 431 196 390T156 279V0H75V705H156V409Q180 453 222 476T320 499Q495 499 495 306Z" />
<glyph unicode="i" glyph-name="i" horiz-adv-x="232" d="M75 0V487H156V0H75ZM67 698H165V607H67V698Z" />
<glyph unicode="j" glyph-name="j" horiz-adv-x="232" d="M156 5Q156 -85 112 -130T-24 -181L-69 -184L-75 -121L-30 -118Q75 -111 75 -6V487H156V5ZM67 698H165V607H67V698Z" />
<glyph unicode="k" glyph-name="k" horiz-adv-x="500" d="M509 0H404L156 233V0H75V705H156V266L383 486H486L244 253L509 0Z" />
<glyph unicode="l" glyph-name="l" horiz-adv-x="232" d="M75 0V705H156V0H75Z" />
<glyph unicode="m" glyph-name="m" horiz-adv-x="852" d="M779 499T779 306V0H698V302Q698 369 675 400T599 431Q538 431 503 390T468 278V0H387V302Q387 370 363 400T287 431Q226 431 191 390T156 278V0H75V487H155V410Q177 453 216 476T306 499Q419 499 455
403Q476 448 519 473T617 499Q779 499 779 306Z" />
<glyph unicode="n" glyph-name="n" horiz-adv-x="568" d="M495 499T495 306V0H414V301Q414 369 388 400T303 431Q236 431 196 390T156 279V0H75V487H155V407Q179 452 222 475T320 499Q495 499 495 306Z" />
<glyph unicode="o" glyph-name="o" horiz-adv-x="555" d="M208 -7T156 24T75 112T46 246Q46 322 74 379T155 468T277 499Q346 499 399 468T480 380T509 246Q509 170 481 113T399 24T277 -7Q208 -7 156 24ZM349 60T387 107T426 246Q426 335 387 383T277 432Q206
432 167 384T128 246Q128 156 166 108T277 60Q349 60 387 107Z" />
<glyph unicode="p" glyph-name="p" horiz-adv-x="582" d="M384 499T433 467T509 378T536 244Q536 168 509 112T434 24T320 -7Q263 -7 221 18T156 89V-180H75V487H156V403Q178 449 220 474T320 499Q384 499 433 467ZM375 60T414 108T453 244Q453 332 414 381T304
431Q233 431 195 383T156 246Q156 157 194 109T304 60Q375 60 414 108Z" />
<glyph unicode="q" glyph-name="q" horiz-adv-x="582" d="M507 487V-180H426V89Q404 43 362 18T262 -7Q197 -7 149 24T73 111T46 244Q46 320 73 377T149 467T262 499Q319 499 361 474T426 403V487H507ZM349 60T387 108T426 246Q426 335 388 383T278 431Q207 431
168 382T128 244Q128 156 167 108T278 60Q349 60 387 108Z" />
<glyph unicode="r" glyph-name="r" horiz-adv-x="353" d="M351 429L298 424Q223 417 190 377T156 278V0H75V487H154V402Q195 487 315 497L344 499L351 429Z" />
<glyph unicode="s" glyph-name="s" horiz-adv-x="480" d="M117 -7T45 56L72 116Q111 85 151 72T243 58Q297 58 325 76T354 130Q354 159 335 176T272 203L190 222Q128 236 95 270T62 354Q62 419 113 459T249 499Q300 499 346 483T423 435L396 376Q329 433 249 433Q198
433 170 414T141 359Q141 330 158 313T215 286L298 266Q366 250 399 218T432 133Q432 69 381 31T240 -7Q117 -7 45 56Z" />
<glyph unicode="t" glyph-name="t" horiz-adv-x="340" d="M311 58T333 61L329 -3Q306 -7 279 -7Q191 -7 147 39T102 167V423H7V487H102V635H183V487H321V423H183V173Q183 58 289 58Q311 58 333 61Z" />
<glyph unicode="u" glyph-name="u" horiz-adv-x="561" d="M485 487V0H406V83Q383 39 342 16T248 -7Q161 -7 117 41T73 185V487H154V187Q154 122 180 92T262 61Q326 61 365 102T404 212V487H485Z" />
<glyph unicode="v" glyph-name="v" horiz-adv-x="514" d="M424 486H505L295 0H219L10 486H96L259 88L424 486Z" />
<glyph unicode="w" glyph-name="w" horiz-adv-x="842" d="M736 487H817L636 0H558L421 377L283 0H206L25 487H109L247 96L388 487H458L597 96L736 487Z" />
<glyph unicode="x" glyph-name="x" horiz-adv-x="518" d="M307 251L509 0H411L259 190L108 0H9L211 251L21 487H119L259 310L399 487H498L307 251Z" />
<glyph unicode="y" glyph-name="y" horiz-adv-x="514" d="M424 486H505L217 -180H134L216 6L10 486H96L259 88L424 486Z" />
<glyph unicode="z" glyph-name="z" horiz-adv-x="503" d="M148 64H461V0H48V56L352 423H58V487H450V428L148 64Z" />
<glyph unicode="{" glyph-name="braceleft" horiz-adv-x="351" d="M226 324T205 297T153 263Q183 256 204 229T226 158V-71Q226 -116 269 -116H343V-180H247Q198 -180 172 -154T146 -78V149Q146 190 131 209T76 230L49 232V294L76 296Q115 298 130 316T146 376V603Q146
652 172 678T247 705H343V641H269Q226 641 226 596V368Q226 324 205 297Z" />
<glyph unicode="|" glyph-name="bar" horiz-adv-x="261" d="M92 -180V705H169V-180H92Z" />
<glyph unicode="}" glyph-name="braceright" horiz-adv-x="351" d="M302 294V232L275 230Q236 228 221 209T205 149V-78Q205 -127 179 -153T104 -180H8V-116H81Q125 -116 125 -71V158Q125 202 146 229T198 263Q168 270 147 297T125 368V596Q125 641 81 641H8V705H104Q153
705 179 679T205 603V376Q205 335 220 317T275 296L302 294Z" />
<glyph unicode="~" glyph-name="asciitilde" horiz-adv-x="600" d="M544 313Q525 266 492 241T415 215Q383 215 353 227T281 261Q250 278 229 286T190 295Q159 295 139 278T106 229L56 256Q74 303 107 328T185 354Q217 354 246 343T319 309Q350 292 371 284T410
275Q441 275 461 292T494 340L544 313Z" />
<glyph unicode="&#xa0;" glyph-name="uni00A0" horiz-adv-x="258" />
<glyph unicode="&#xa1;" glyph-name="exclamdown" horiz-adv-x="229" d="M63 384V487H165V384H63ZM89 301H139L165 -180H64L89 301Z" />
<glyph unicode="&#xa2;" glyph-name="cent" horiz-adv-x="600" d="M502 56Q475 30 435 14T351 -6V-115H281V-3Q194 11 143 77T91 244Q91 343 143 410T281 495V606H351V498Q395 495 435 478T502 435L475 375Q406 431 335 431Q261 431 219 382T176 244Q176 157 218
109T334 60Q406 60 475 116L502 56Z" />
<glyph unicode="&#xa3;" glyph-name="sterling" horiz-adv-x="600" d="M228 69H560V0H48V69H146V324H48V382H146V521Q146 610 198 661T342 713Q405 713 462 690T565 624L533 561Q490 601 442 622T346 644Q288 644 258 611T228 515V382H408V324H228V69Z" />
<glyph unicode="&#xa4;" glyph-name="currency" horiz-adv-x="600" d="M541 158T489 92L542 37L500 -5L447 49Q384 -3 300 -3Q259 -3 221 11T151 50L97 -5L55 37L109 93Q59 161 59 245Q59 329 109 397L55 453L98 496L151 440Q182 465 220 479T300 493Q341 493
378 480T446 442L499 496L543 452L490 398Q541 331 541 245Q541 158 489 92ZM345 64T384 88T446 154T469 245Q469 294 446 335T384 401T299 426Q253 426 214 402T152 336T129 245Q129 196 152 155T214 89T299 64Q345 64 384 88Z" />
<glyph unicode="&#xa5;" glyph-name="yen" horiz-adv-x="600" d="M605 705L375 385H528V326H341V234H528V175H341V0H259V175H72V234H259V326H72V385H225L-5 705H87L300 404L513 705H605Z" />
<glyph unicode="&#xa6;" glyph-name="brokenbar" horiz-adv-x="261" d="M92 371V705H169V371H92ZM92 -180V154H169V-180H92Z" />
<glyph unicode="&#xa7;" glyph-name="section" horiz-adv-x="537" d="M496 158T481 125T438 67Q456 35 456 -12Q456 -92 404 -139T262 -187Q142 -187 63 -123L90 -63Q133 -94 172 -107T258 -121Q314 -121 345 -94T376 -16Q376 24 356 51T286 103L190 150Q109 189
75 231T41 332Q41 368 56 402T98 460Q81 491 81 537Q81 617 134 664T278 712Q327 712 373 695T451 649L424 590Q350 646 281 646Q223 646 192 619T161 541Q161 501 181 475T251 423L347 375Q427 335 461 293T496 193Q496 158 481 125ZM366 145T398 117Q419 147
419 186Q419 221 395 248T314 306L221 355Q168 383 139 408Q117 377 117 339Q117 304 141 277T223 219L316 171Q366 145 398 117Z" />
<glyph unicode="&#xa8;" glyph-name="dieresis" horiz-adv-x="300" d="M20 695H109V610H20V695ZM191 695H280V610H191V695Z" />
<glyph unicode="&#xa9;" glyph-name="copyright" horiz-adv-x="815" d="M308 -5T227 42T98 171T50 353Q50 453 97 534T226 663T408 710Q508 710 589 663T718 535T765 353Q765 253 718 172T589 43T408 -5Q308 -5 227 42ZM495 40T566 81T677 193T718 353Q718 441
678 512T566 624T408 665Q321 665 250 624T138 512T97 353Q97 265 138 194T250 81T408 40Q495 40 566 81ZM322 137T268 195T213 353Q213 452 267 510T416 568Q458 568 498 554T566 514L542 461Q484 507 422 507Q359 507 325 467T291 353Q291 279 325 239T422 198Q484
198 542 244L566 191Q538 166 498 152T416 137Q322 137 268 195Z" />
<glyph unicode="&#xaa;" glyph-name="ordfeminine" horiz-adv-x="330" d="M227 710T257 681T288 588V412H220V458Q208 434 185 421T133 407Q88 407 59 433T30 496Q30 528 46 546T100 573T203 582H219V599Q219 629 205 642T162 656Q113 656 64 626L45 677Q69 692
101 701T167 710Q227 710 257 681ZM179 458T199 477T219 530V544H209Q163 544 139 540T107 526T98 501Q98 483 112 471T149 458Q179 458 199 477Z" />
<glyph unicode="&#xab;" glyph-name="guillemotleft" horiz-adv-x="441" d="M156 85L61 245V286L156 445L213 422L136 265L213 108L156 85ZM337 85L242 245V286L337 445L394 422L317 265L394 108L337 85Z" />
<glyph unicode="&#xac;" glyph-name="logicalnot" horiz-adv-x="600" d="M544 419V149H483V358H56V419H544Z" />
<glyph unicode="&#xad;" glyph-name="uni00AD" horiz-adv-x="425" d="M72 233V300H352V233H72Z" />
<glyph unicode="&#xae;" glyph-name="registered" horiz-adv-x="815" d="M508 710T589 663T718 535T765 353Q765 253 718 172T589 43T408 -5Q308 -5 227 42T98 171T50 353Q50 453 97 534T226 663T408 710Q508 710 589 663ZM495 40T566 81T677 193T718 353Q718
441 678 512T566 624T408 665Q321 665 250 624T138 512T97 353Q97 265 138 194T250 81T408 40Q495 40 566 81ZM506 309T530 271L607 142H524L445 277Q433 296 420 303T384 311H332V142H258V564H435Q505 564 543 531T581 439Q581 390 553 358T473 318Q506 309 530
271ZM468 368T488 384T508 436Q508 472 488 488T426 505H332V368H426Q468 368 488 384Z" />
<glyph unicode="&#xaf;" glyph-name="overscore" horiz-adv-x="300" d="M0 622V683H300V622H0Z" />
<glyph unicode="&#xb0;" glyph-name="degree" horiz-adv-x="365" d="M142 420T109 439T57 491T37 565Q37 606 56 639T109 691T183 710Q223 710 256 691T308 639T328 565Q328 524 309 491T256 439T183 420Q142 420 109 439ZM221 473T246 499T271 565Q271 605 246
631T183 657Q144 657 119 631T94 565Q94 525 119 499T183 473Q221 473 246 499Z" />
<glyph unicode="&#xb1;" glyph-name="plusminus" horiz-adv-x="600" d="M331 357H544V295H331V123H269V295H56V357H269V529H331V357ZM56 0V63H544V0H56Z" />
<glyph unicode="&#xb2;" glyph-name="uni00B2" horiz-adv-x="380" d="M335 342V282H54V336L196 493Q222 521 234 544T247 591Q247 620 230 635T181 650Q154 650 123 639T64 605L39 658Q68 681 108 695T188 709Q249 709 285 677T321 595Q321 559 304 526T248 451L143
342H335Z" />
<glyph unicode="&#xb3;" glyph-name="uni00B3" horiz-adv-x="380" d="M289 489T309 464T330 398Q330 343 291 311T184 278Q143 278 103 292T34 330L58 382Q121 337 180 337Q218 337 239 353T260 402Q260 467 176 467H120V525H165Q205 525 227 541T249 591Q249
620 231 635T182 650Q123 650 64 605L39 658Q68 680 107 694T186 709Q249 709 284 678T320 597Q320 562 302 537T252 500Q289 489 309 464Z" />
<glyph unicode="&#xb4;" glyph-name="acute" horiz-adv-x="300" d="M178 551H122L221 753H314L178 551Z" />
<glyph unicode="&#xb5;" glyph-name="uni00B5" horiz-adv-x="561" d="M485 487V0H406V83Q383 39 342 16T248 -7Q189 -7 154 18V-180H73V487H154V187Q154 122 180 92T262 61Q326 61 365 102T404 212V487H485Z" />
<glyph unicode="&#xb6;" glyph-name="paragraph" horiz-adv-x="582" d="M496 -180H429V644H310V-180H243V310Q184 310 139 335T70 405T45 508Q45 565 69 610T139 680T245 705H496V-180Z" />
<glyph unicode="&#xb7;" glyph-name="middot" horiz-adv-x="229" d="M63 317H165V215H63V317Z" />
<glyph unicode="&#xb8;" glyph-name="cedilla" horiz-adv-x="300" d="M223 -41T245 -58T267 -110Q267 -146 237 -169T151 -193Q130 -193 106 -188T63 -174L76 -131Q112 -145 152 -145Q179 -145 193 -136T207 -110Q207 -97 198 -90T172 -83Q150 -83 127 -92L107
-76L118 20H174L167 -43Q183 -41 191 -41Q223 -41 245 -58Z" />
<glyph unicode="&#xb9;" glyph-name="uni00B9" horiz-adv-x="380" d="M252 342H327V282H104V342H179V623L112 581L80 634L197 705H252V342Z" />
<glyph unicode="&#xba;" glyph-name="ordmasculine" horiz-adv-x="342" d="M101 407T62 449T22 559Q22 626 61 668T170 710Q240 710 280 668T320 559Q320 491 280 449T170 407Q101 407 62 449ZM209 464T228 488T248 559Q248 604 228 628T170 653Q133 653 114 629T94
559Q94 513 113 489T170 464Q209 464 228 488Z" />
<glyph unicode="&#xbb;" glyph-name="guillemotright" horiz-adv-x="439" d="M103 85L46 108L124 265L46 422L104 445L199 286V245L103 85ZM284 85L227 108L305 265L227 422L285 445L380 286V245L284 85Z" />
<glyph unicode="&#xbc;" glyph-name="onequarter" horiz-adv-x="933" d="M252 342H327V282H104V342H179V623L112 581L80 634L197 705H252V342ZM288 -25L229 9L646 730L704 696L288 -25ZM910 140V83H848V0H779V83H587V136L789 423H848V140H910ZM655 140H779V317L655 140Z" />
<glyph unicode="&#xbd;" glyph-name="onehalf" horiz-adv-x="933" d="M252 342H327V282H104V342H179V623L112 581L80 634L197 705H252V342ZM288 -25L229 9L646 730L704 696L288 -25ZM888 60V0H607V54L749 211Q775 239 787 262T800 309Q800 338 783 353T734 368Q707
368 676 357T617 323L592 376Q621 399 661 413T741 427Q802 427 838 395T874 313Q874 277 857 244T801 169L696 60H888Z" />
<glyph unicode="&#xbe;" glyph-name="threequarters" horiz-adv-x="933" d="M289 489T309 464T330 398Q330 343 291 311T184 278Q143 278 103 292T34 330L58 382Q121 337 180 337Q218 337 239 353T260 402Q260 467 176 467H120V525H165Q205 525 227 541T249 591Q249
620 231 635T182 650Q123 650 64 605L39 658Q68 680 107 694T186 709Q249 709 284 678T320 597Q320 562 302 537T252 500Q289 489 309 464ZM288 -25L229 9L646 730L704 696L288 -25ZM910 140V83H848V0H779V83H587V136L789 423H848V140H910ZM655 140H779V317L655
140Z" />
<glyph unicode="&#xbf;" glyph-name="questiondown" horiz-adv-x="443" d="M184 384V487H286V384H184ZM131 -187T78 -145T24 -33Q24 2 36 30T66 80T115 130Q158 171 181 204T209 285L212 303H260V278Q260 236 248 204T219 149T174 97Q140 61 124 35T107 -28Q107
-68 137 -93T218 -118Q265 -118 314 -98T411 -38L442 -100Q400 -140 338 -163T215 -187Q131 -187 78 -145Z" />
<glyph unicode="&#xc0;" glyph-name="Agrave" horiz-adv-x="727" d="M626 0L548 181H180L102 0H18L328 705H399L709 0H626ZM209 249H519L364 610L209 249ZM336 765L203 917H291L392 765H336Z" />
<glyph unicode="&#xc1;" glyph-name="Aacute" horiz-adv-x="727" d="M626 0L548 181H180L102 0H18L328 705H399L709 0H626ZM209 249H519L364 610L209 249ZM392 765H336L437 917H525L392 765Z" />
<glyph unicode="&#xc2;" glyph-name="Acircumflex" horiz-adv-x="727" d="M626 0L548 181H180L102 0H18L328 705H399L709 0H626ZM209 249H519L364 610L209 249ZM291 765H218L337 917H391L510 765H437L364 868L291 765Z" />
<glyph unicode="&#xc3;" glyph-name="Atilde" horiz-adv-x="727" d="M626 0L548 181H180L102 0H18L328 705H399L709 0H626ZM209 249H519L364 610L209 249ZM203 840T227 870T292 901Q313 901 332 893T376 868Q397 855 409 849T434 843Q456 843 468 859T480 898H525Q525
844 501 814T436 783Q415 783 396 791T352 816Q331 829 319 835T294 841Q272 841 260 825T248 786H203Q203 840 227 870Z" />
<glyph unicode="&#xc4;" glyph-name="Adieresis" horiz-adv-x="727" d="M626 0L548 181H180L102 0H18L328 705H399L709 0H626ZM209 249H519L364 610L209 249ZM234 885H323V799H234V885ZM405 885H494V799H405V885Z" />
<glyph unicode="&#xc5;" glyph-name="Aring" horiz-adv-x="727" d="M548 181H180L102 0H18L319 684Q294 696 279 720T263 773Q263 815 292 843T364 872Q406 872 435 844T465 773Q465 744 450 720T408 684L709 0H626L548 181ZM343 823T330 809T316 773Q316 752
329 738T364 723Q385 723 398 737T412 773Q412 794 399 808T364 823Q343 823 330 809ZM209 249H519L364 610L209 249Z" />
<glyph unicode="&#xc6;" glyph-name="AE" horiz-adv-x="991" d="M942 636H513L566 392H922V324H580L635 69H942V0H573L535 181H194L87 0H-2L427 705H942V636ZM234 249H520L445 604L234 249Z" />
<glyph unicode="&#xc7;" glyph-name="Ccedilla" horiz-adv-x="677" d="M586 39T529 17T403 -8L399 -43Q415 -41 423 -41Q455 -41 477 -58T499 -110Q499 -146 469 -169T383 -193Q363 -193 338 -188T295 -174L308 -131Q344 -145 384 -145Q411 -145 425 -136T439
-110Q439 -97 430 -90T404 -83Q382 -83 359 -92L339 -76L347 -6Q213 8 137 102T61 353Q61 464 100 545T214 669T388 713Q461 713 522 691T628 624L597 561Q546 604 497 623T389 642Q273 642 210 567T146 353Q146 214 209 139T389 63Q448 63 497 82T597 144L628
81Q586 39 529 17Z" />
<glyph unicode="&#xc8;" glyph-name="Egrave" horiz-adv-x="582" d="M87 0V705H533V637H168V392H513V324H168V68H533V0H87ZM296 765L163 917H251L352 765H296Z" />
<glyph unicode="&#xc9;" glyph-name="Eacute" horiz-adv-x="582" d="M87 0V705H533V637H168V392H513V324H168V68H533V0H87ZM352 765H296L397 917H485L352 765Z" />
<glyph unicode="&#xca;" glyph-name="Ecircumflex" horiz-adv-x="582" d="M87 0V705H533V637H168V392H513V324H168V68H533V0H87ZM251 765H178L297 917H351L470 765H397L324 868L251 765Z" />
<glyph unicode="&#xcb;" glyph-name="Edieresis" horiz-adv-x="582" d="M87 0V705H533V637H168V392H513V324H168V68H533V0H87ZM194 885H283V799H194V885ZM365 885H454V799H365V885Z" />
<glyph unicode="&#xcc;" glyph-name="Igrave" horiz-adv-x="256" d="M87 0V705H169V0H87ZM100 765L-33 917H55L156 765H100Z" />
<glyph unicode="&#xcd;" glyph-name="Iacute" horiz-adv-x="256" d="M87 0V705H169V0H87ZM156 765H100L201 917H289L156 765Z" />
<glyph unicode="&#xce;" glyph-name="Icircumflex" horiz-adv-x="256" d="M87 0V705H169V0H87ZM55 765H-18L101 917H155L274 765H201L128 868L55 765Z" />
<glyph unicode="&#xcf;" glyph-name="Idieresis" horiz-adv-x="256" d="M87 0V705H169V0H87ZM-2 885H87V799H-2V885ZM169 885H258V799H169V885Z" />
<glyph unicode="&#xd0;" glyph-name="Eth" horiz-adv-x="752" d="M507 705T599 614T691 353Q691 184 599 92T337 0H100V324H8V391H100V705H337Q507 705 599 614ZM469 70T538 141T607 353Q607 635 333 635H182V391H375V324H182V70H333Q469 70 538 141Z" />
<glyph unicode="&#xd1;" glyph-name="Ntilde" horiz-adv-x="739" d="M575 705H652V0H589L164 567V0H87V705H150L575 138V705ZM208 840T232 870T297 901Q318 901 337 893T381 868Q402 855 414 849T439 843Q461 843 473 859T485 898H530Q530 844 506 814T441 783Q420
783 401 791T357 816Q336 829 324 835T299 841Q277 841 265 825T253 786H208Q208 840 232 870Z" />
<glyph unicode="&#xd2;" glyph-name="Ograve" horiz-adv-x="764" d="M284 -8T212 36T100 161T61 352Q61 463 99 544T210 669T382 713Q481 713 553 670T664 545T703 353Q703 243 664 162T553 36T382 -8Q284 -8 212 36ZM494 62T556 137T619 353Q619 493 557 568T382
643Q270 643 208 568T145 353Q145 214 207 138T382 62Q494 62 556 137ZM354 765L221 917H309L410 765H354Z" />
<glyph unicode="&#xd3;" glyph-name="Oacute" horiz-adv-x="764" d="M284 -8T212 36T100 161T61 352Q61 463 99 544T210 669T382 713Q481 713 553 670T664 545T703 353Q703 243 664 162T553 36T382 -8Q284 -8 212 36ZM494 62T556 137T619 353Q619 493 557 568T382
643Q270 643 208 568T145 353Q145 214 207 138T382 62Q494 62 556 137ZM410 765H354L455 917H543L410 765Z" />
<glyph unicode="&#xd4;" glyph-name="Ocircumflex" horiz-adv-x="764" d="M284 -8T212 36T100 161T61 352Q61 463 99 544T210 669T382 713Q481 713 553 670T664 545T703 353Q703 243 664 162T553 36T382 -8Q284 -8 212 36ZM494 62T556 137T619 353Q619 493 557
568T382 643Q270 643 208 568T145 353Q145 214 207 138T382 62Q494 62 556 137ZM309 765H236L355 917H409L528 765H455L382 868L309 765Z" />
<glyph unicode="&#xd5;" glyph-name="Otilde" horiz-adv-x="764" d="M284 -8T212 36T100 161T61 352Q61 463 99 544T210 669T382 713Q481 713 553 670T664 545T703 353Q703 243 664 162T553 36T382 -8Q284 -8 212 36ZM494 62T556 137T619 353Q619 493 557 568T382
643Q270 643 208 568T145 353Q145 214 207 138T382 62Q494 62 556 137ZM221 840T245 870T310 901Q331 901 350 893T394 868Q415 855 427 849T452 843Q474 843 486 859T498 898H543Q543 844 519 814T454 783Q433 783 414 791T370 816Q349 829 337 835T312 841Q290
841 278 825T266 786H221Q221 840 245 870Z" />
<glyph unicode="&#xd6;" glyph-name="Odieresis" horiz-adv-x="764" d="M284 -8T212 36T100 161T61 352Q61 463 99 544T210 669T382 713Q481 713 553 670T664 545T703 353Q703 243 664 162T553 36T382 -8Q284 -8 212 36ZM494 62T556 137T619 353Q619 493 557 568T382
643Q270 643 208 568T145 353Q145 214 207 138T382 62Q494 62 556 137ZM252 885H341V799H252V885ZM423 885H512V799H423V885Z" />
<glyph unicode="&#xd7;" glyph-name="multiply" horiz-adv-x="600" d="M534 475L344 285L534 94L490 51L300 241L110 51L66 94L256 285L66 475L110 519L300 329L490 519L534 475Z" />
<glyph unicode="&#xd8;" glyph-name="Oslash" horiz-adv-x="764" d="M644 597T673 523T703 353Q703 243 664 162T553 36T382 -8Q297 -8 229 26L187 -47L131 -14L175 62Q120 109 91 183T61 352Q61 463 99 544T210 669T382 713Q467 713 535 679L577 752L633 719L589
644Q644 597 673 523ZM145 280T163 224T215 130L498 616Q449 643 382 643Q270 643 208 568T145 353Q145 280 163 224ZM494 62T556 137T619 353Q619 501 550 576L266 89Q316 62 382 62Q494 62 556 137Z" />
<glyph unicode="&#xd9;" glyph-name="Ugrave" horiz-adv-x="724" d="M224 -8T153 64T82 276V705H163V269Q163 166 213 114T362 62Q460 62 510 114T560 269V705H642V276Q642 137 571 65T362 -8Q224 -8 153 64ZM334 765L201 917H289L390 765H334Z" />
<glyph unicode="&#xda;" glyph-name="Uacute" horiz-adv-x="724" d="M224 -8T153 64T82 276V705H163V269Q163 166 213 114T362 62Q460 62 510 114T560 269V705H642V276Q642 137 571 65T362 -8Q224 -8 153 64ZM390 765H334L435 917H523L390 765Z" />
<glyph unicode="&#xdb;" glyph-name="Ucircumflex" horiz-adv-x="724" d="M224 -8T153 64T82 276V705H163V269Q163 166 213 114T362 62Q460 62 510 114T560 269V705H642V276Q642 137 571 65T362 -8Q224 -8 153 64ZM289 765H216L335 917H389L508 765H435L362 868L289 765Z" />
<glyph unicode="&#xdc;" glyph-name="Udieresis" horiz-adv-x="724" d="M224 -8T153 64T82 276V705H163V269Q163 166 213 114T362 62Q460 62 510 114T560 269V705H642V276Q642 137 571 65T362 -8Q224 -8 153 64ZM232 885H321V799H232V885ZM403 885H492V799H403V885Z" />
<glyph unicode="&#xdd;" glyph-name="Yacute" horiz-adv-x="601" d="M618 705L341 333V0H259V334L-18 705H77L301 401L525 705H618ZM328 765H272L373 917H461L328 765Z" />
<glyph unicode="&#xde;" glyph-name="Thorn" horiz-adv-x="645" d="M482 550T541 500T600 359Q600 268 540 218T373 167H168V0H87V705H168V550H373Q482 550 541 500ZM443 235T481 265T519 359Q519 422 481 452T364 482H168V235H364Q443 235 481 265Z" />
<glyph unicode="&#xdf;" glyph-name="germandbls" horiz-adv-x="616" d="M75 477Q75 587 134 648T301 710Q380 710 425 676T470 579Q470 538 450 509T391 446Q363 422 349 404T335 365Q335 333 360 316T439 281Q485 265 514 250T565 207T586 136Q586 72 536 33T403
-7Q350 -7 302 9T220 56L247 116Q325 59 404 59Q453 59 480 78T507 133Q507 166 481 183T399 220Q353 235 325 249T276 290T256 357Q256 393 274 419T329 478Q361 508 376 528T392 576Q392 609 368 627T300 645Q231 645 194 604T156 486V0H75V477Z" />
<glyph unicode="&#xe0;" glyph-name="agrave" horiz-adv-x="530" d="M366 499T411 452T457 307V0H378V83Q359 40 320 17T230 -7Q183 -7 144 12T81 65T58 140Q58 195 86 225T178 269T356 283H378V316Q378 377 353 404T272 432Q188 432 105 380L78 439Q116 466 169
482T273 499Q366 499 411 452ZM301 57T339 97T378 202V231H360Q272 231 226 224T161 199T141 147Q141 108 169 83T241 57Q301 57 339 97ZM246 551L110 753H203L302 551H246Z" />
<glyph unicode="&#xe1;" glyph-name="aacute" horiz-adv-x="530" d="M366 499T411 452T457 307V0H378V83Q359 40 320 17T230 -7Q183 -7 144 12T81 65T58 140Q58 195 86 225T178 269T356 283H378V316Q378 377 353 404T272 432Q188 432 105 380L78 439Q116 466 169
482T273 499Q366 499 411 452ZM301 57T339 97T378 202V231H360Q272 231 226 224T161 199T141 147Q141 108 169 83T241 57Q301 57 339 97ZM302 551H246L345 753H438L302 551Z" />
<glyph unicode="&#xe2;" glyph-name="acircumflex" horiz-adv-x="530" d="M366 499T411 452T457 307V0H378V83Q359 40 320 17T230 -7Q183 -7 144 12T81 65T58 140Q58 195 86 225T178 269T356 283H378V316Q378 377 353 404T272 432Q188 432 105 380L78 439Q116
466 169 482T273 499Q366 499 411 452ZM301 57T339 97T378 202V231H360Q272 231 226 224T161 199T141 147Q141 108 169 83T241 57Q301 57 339 97ZM202 551H128L246 753H302L420 551H346L274 694L202 551Z" />
<glyph unicode="&#xe3;" glyph-name="atilde" horiz-adv-x="530" d="M366 499T411 452T457 307V0H378V83Q359 40 320 17T230 -7Q183 -7 144 12T81 65T58 140Q58 195 86 225T178 269T356 283H378V316Q378 377 353 404T272 432Q188 432 105 380L78 439Q116 466 169
482T273 499Q366 499 411 452ZM301 57T339 97T378 202V231H360Q272 231 226 224T161 199T141 147Q141 108 169 83T241 57Q301 57 339 97ZM113 652T137 682T202 712Q223 712 242 704T286 679Q309 666 320 661T344 655Q366 655 378 670T390 709H435Q435 655 411 625T346
595Q325 595 306 603T262 628Q239 641 228 646T204 652Q182 652 170 637T158 598H113Q113 652 137 682Z" />
<glyph unicode="&#xe4;" glyph-name="adieresis" horiz-adv-x="530" d="M366 499T411 452T457 307V0H378V83Q359 40 320 17T230 -7Q183 -7 144 12T81 65T58 140Q58 195 86 225T178 269T356 283H378V316Q378 377 353 404T272 432Q188 432 105 380L78 439Q116 466
169 482T273 499Q366 499 411 452ZM301 57T339 97T378 202V231H360Q272 231 226 224T161 199T141 147Q141 108 169 83T241 57Q301 57 339 97ZM144 695H233V610H144V695ZM315 695H404V610H315V695Z" />
<glyph unicode="&#xe5;" glyph-name="aring" horiz-adv-x="530" d="M366 499T411 452T457 307V0H378V83Q359 40 320 17T230 -7Q183 -7 144 12T81 65T58 140Q58 195 86 225T178 269T356 283H378V316Q378 377 353 404T272 432Q188 432 105 380L78 439Q116 466 169
482T273 499Q366 499 411 452ZM301 57T339 97T378 202V231H360Q272 231 226 224T161 199T141 147Q141 108 169 83T241 57Q301 57 339 97ZM232 553T203 581T173 652Q173 694 202 722T274 751Q316 751 345 723T375 652Q375 610 346 582T274 553Q232 553 203 581ZM295
602T308 616T322 652Q322 673 309 687T274 702Q253 702 240 688T226 652Q226 631 239 617T274 602Q295 602 308 616Z" />
<glyph unicode="&#xe6;" glyph-name="ae" horiz-adv-x="853" d="M809 231H460Q464 146 505 103T620 59Q701 59 774 117L801 58Q769 29 720 11T620 -7Q546 -7 494 25T415 117Q396 58 350 26T238 -7Q188 -7 147 12T82 64T58 140Q58 195 86 225T178 269T358 283H381V313Q381
375 356 403T275 432Q190 432 105 380L78 439Q116 466 170 482T274 499Q397 499 436 412Q465 454 509 476T608 499Q702 499 755 435T809 259V231ZM545 436T507 396T462 283H738Q735 357 701 396T607 436Q545 436 507 396ZM305 57T343 99T381 206V231H362Q274 231
227 224T161 198T141 147Q141 107 170 82T246 57Q305 57 343 99Z" />
<glyph unicode="&#xe7;" glyph-name="ccedilla" horiz-adv-x="479" d="M427 29T384 12T294 -7L290 -43Q306 -41 314 -41Q346 -41 368 -58T390 -110Q390 -146 360 -169T274 -193Q253 -193 229 -188T186 -174L199 -131Q235 -145 275 -145Q302 -145 316 -136T330
-110Q330 -97 321 -90T295 -83Q273 -83 250 -92L230 -76L238 -4Q149 10 98 76T46 244Q46 320 75 377T158 467T284 499Q333 499 380 482T456 435L429 375Q360 431 289 431Q214 431 172 382T130 244Q130 156 172 108T289 60Q360 60 429 116L456 56Q427 29 384 12Z"
/>
<glyph unicode="&#xe8;" glyph-name="egrave" horiz-adv-x="527" d="M483 231H127Q131 146 173 103T292 59Q377 59 448 117L475 58Q443 28 393 11T291 -7Q177 -7 112 60T46 245Q46 320 75 377T156 467T276 499Q373 499 428 436T483 261V231ZM213 436T175 396T129
283H412Q410 357 375 396T277 436Q213 436 175 396ZM248 551L112 753H205L304 551H248Z" />
<glyph unicode="&#xe9;" glyph-name="eacute" horiz-adv-x="527" d="M483 231H127Q131 146 173 103T292 59Q377 59 448 117L475 58Q443 28 393 11T291 -7Q177 -7 112 60T46 245Q46 320 75 377T156 467T276 499Q373 499 428 436T483 261V231ZM213 436T175 396T129
283H412Q410 357 375 396T277 436Q213 436 175 396ZM304 551H248L347 753H440L304 551Z" />
<glyph unicode="&#xea;" glyph-name="ecircumflex" horiz-adv-x="527" d="M483 231H127Q131 146 173 103T292 59Q377 59 448 117L475 58Q443 28 393 11T291 -7Q177 -7 112 60T46 245Q46 320 75 377T156 467T276 499Q373 499 428 436T483 261V231ZM213 436T175
396T129 283H412Q410 357 375 396T277 436Q213 436 175 396ZM204 551H130L248 753H304L422 551H348L276 694L204 551Z" />
<glyph unicode="&#xeb;" glyph-name="edieresis" horiz-adv-x="527" d="M483 231H127Q131 146 173 103T292 59Q377 59 448 117L475 58Q443 28 393 11T291 -7Q177 -7 112 60T46 245Q46 320 75 377T156 467T276 499Q373 499 428 436T483 261V231ZM213 436T175 396T129
283H412Q410 357 375 396T277 436Q213 436 175 396ZM146 695H235V610H146V695ZM317 695H406V610H317V695Z" />
<glyph unicode="&#xec;" glyph-name="igrave" horiz-adv-x="232" d="M75 0V487H156V0H75ZM88 551L-48 753H45L144 551H88Z" />
<glyph unicode="&#xed;" glyph-name="iacute" horiz-adv-x="232" d="M75 0V487H156V0H75ZM144 551H88L187 753H280L144 551Z" />
<glyph unicode="&#xee;" glyph-name="icircumflex" horiz-adv-x="232" d="M75 0V487H156V0H75ZM44 551H-30L88 753H144L262 551H188L116 694L44 551Z" />
<glyph unicode="&#xef;" glyph-name="idieresis" horiz-adv-x="232" d="M75 0V487H156V0H75ZM-14 695H75V610H-14V695ZM157 695H246V610H157V695Z" />
<glyph unicode="&#xf0;" glyph-name="eth" horiz-adv-x="559" d="M461 522T487 448T513 288Q513 143 452 68T275 -7Q207 -7 155 21T75 102T46 224Q46 293 74 345T154 426T272 455Q376 455 428 385Q407 486 339 554L178 496L161 547L291 593Q234 633 157 653L177
712Q290 684 366 620L494 666L510 615L410 579Q461 522 487 448ZM347 60T386 103T426 224Q426 303 387 346T277 389Q206 389 167 346T128 224Q128 145 167 103T277 60Q347 60 386 103Z" />
<glyph unicode="&#xf1;" glyph-name="ntilde" horiz-adv-x="568" d="M495 499T495 306V0H414V301Q414 369 388 400T303 431Q236 431 196 390T156 279V0H75V487H155V407Q179 452 222 475T320 499Q495 499 495 306ZM124 652T148 682T213 712Q234 712 253 704T297
679Q320 666 331 661T355 655Q377 655 389 670T401 709H446Q446 655 422 625T357 595Q336 595 317 603T273 628Q250 641 239 646T215 652Q193 652 181 637T169 598H124Q124 652 148 682Z" />
<glyph unicode="&#xf2;" glyph-name="ograve" horiz-adv-x="555" d="M208 -7T156 24T75 112T46 246Q46 322 74 379T155 468T277 499Q346 499 399 468T480 380T509 246Q509 170 481 113T399 24T277 -7Q208 -7 156 24ZM349 60T387 107T426 246Q426 335 387 383T277
432Q206 432 167 384T128 246Q128 156 166 108T277 60Q349 60 387 107ZM249 551L113 753H206L305 551H249Z" />
<glyph unicode="&#xf3;" glyph-name="oacute" horiz-adv-x="555" d="M208 -7T156 24T75 112T46 246Q46 322 74 379T155 468T277 499Q346 499 399 468T480 380T509 246Q509 170 481 113T399 24T277 -7Q208 -7 156 24ZM349 60T387 107T426 246Q426 335 387 383T277
432Q206 432 167 384T128 246Q128 156 166 108T277 60Q349 60 387 107ZM305 551H249L348 753H441L305 551Z" />
<glyph unicode="&#xf4;" glyph-name="ocircumflex" horiz-adv-x="555" d="M208 -7T156 24T75 112T46 246Q46 322 74 379T155 468T277 499Q346 499 399 468T480 380T509 246Q509 170 481 113T399 24T277 -7Q208 -7 156 24ZM349 60T387 107T426 246Q426 335 387
383T277 432Q206 432 167 384T128 246Q128 156 166 108T277 60Q349 60 387 107ZM205 551H131L249 753H305L423 551H349L277 694L205 551Z" />
<glyph unicode="&#xf5;" glyph-name="otilde" horiz-adv-x="555" d="M208 -7T156 24T75 112T46 246Q46 322 74 379T155 468T277 499Q346 499 399 468T480 380T509 246Q509 170 481 113T399 24T277 -7Q208 -7 156 24ZM349 60T387 107T426 246Q426 335 387 383T277
432Q206 432 167 384T128 246Q128 156 166 108T277 60Q349 60 387 107ZM116 652T140 682T205 712Q226 712 245 704T289 679Q312 666 323 661T347 655Q369 655 381 670T393 709H438Q438 655 414 625T349 595Q328 595 309 603T265 628Q242 641 231 646T207 652Q185
652 173 637T161 598H116Q116 652 140 682Z" />
<glyph unicode="&#xf6;" glyph-name="odieresis" horiz-adv-x="555" d="M208 -7T156 24T75 112T46 246Q46 322 74 379T155 468T277 499Q346 499 399 468T480 380T509 246Q509 170 481 113T399 24T277 -7Q208 -7 156 24ZM349 60T387 107T426 246Q426 335 387 383T277
432Q206 432 167 384T128 246Q128 156 166 108T277 60Q349 60 387 107ZM147 695H236V610H147V695ZM318 695H407V610H318V695Z" />
<glyph unicode="&#xf7;" glyph-name="divide" horiz-adv-x="600" d="M247 435V530H341V435H247ZM544 316V253H56V316H544ZM247 38V133H341V38H247Z" />
<glyph unicode="&#xf8;" glyph-name="oslash" horiz-adv-x="555" d="M466 415T487 363T509 246Q509 170 481 113T399 24T277 -7Q220 -7 176 14L141 -46L92 -17L127 44Q88 77 67 129T46 246Q46 322 74 379T155 468T277 499Q335 499 380 478L414 537L463 509L427
448Q466 415 487 363ZM128 157T165 109L345 418Q314 432 277 432Q206 432 167 384T128 246Q128 157 165 109ZM350 60T388 107T427 246Q427 333 389 382L210 73Q237 60 277 60Q350 60 388 107Z" />
<glyph unicode="&#xf9;" glyph-name="ugrave" horiz-adv-x="561" d="M485 487V0H406V83Q383 39 342 16T248 -7Q161 -7 117 41T73 185V487H154V187Q154 122 180 92T262 61Q326 61 365 102T404 212V487H485ZM252 551L116 753H209L308 551H252Z" />
<glyph unicode="&#xfa;" glyph-name="uacute" horiz-adv-x="561" d="M485 487V0H406V83Q383 39 342 16T248 -7Q161 -7 117 41T73 185V487H154V187Q154 122 180 92T262 61Q326 61 365 102T404 212V487H485ZM308 551H252L351 753H444L308 551Z" />
<glyph unicode="&#xfb;" glyph-name="ucircumflex" horiz-adv-x="561" d="M485 487V0H406V83Q383 39 342 16T248 -7Q161 -7 117 41T73 185V487H154V187Q154 122 180 92T262 61Q326 61 365 102T404 212V487H485ZM208 551H134L252 753H308L426 551H352L280 694L208 551Z" />
<glyph unicode="&#xfc;" glyph-name="udieresis" horiz-adv-x="561" d="M485 487V0H406V83Q383 39 342 16T248 -7Q161 -7 117 41T73 185V487H154V187Q154 122 180 92T262 61Q326 61 365 102T404 212V487H485ZM150 695H239V610H150V695ZM321 695H410V610H321V695Z" />
<glyph unicode="&#xfd;" glyph-name="yacute" horiz-adv-x="514" d="M424 486H505L217 -180H134L216 6L10 486H96L259 88L424 486ZM286 551H230L329 753H422L286 551Z" />
<glyph unicode="&#xfe;" glyph-name="thorn" horiz-adv-x="582" d="M382 499T431 468T508 379T536 244Q536 167 509 110T432 23T320 -7Q263 -7 221 18T156 89V-180H75V705H156V403Q178 449 220 474T320 499Q382 499 431 468ZM376 60T414 108T453 244Q453 331 414
381T304 431Q233 431 195 383T156 246Q156 157 194 109T304 60Q376 60 414 108Z" />
<glyph unicode="&#xff;" glyph-name="ydieresis" horiz-adv-x="514" d="M424 486H505L217 -180H134L216 6L10 486H96L259 88L424 486ZM128 695H217V610H128V695ZM299 695H388V610H299V695Z" />
<glyph unicode="&#x2013;" glyph-name="endash" horiz-adv-x="500" d="M0 240V292H500V240H0Z" />
<glyph unicode="&#x2014;" glyph-name="emdash" horiz-adv-x="1000" d="M0 240V292H1000V240H0Z" />
<glyph unicode="&#x2018;" glyph-name="quoteleft" horiz-adv-x="229" d="M165 596V494H63V566Q63 608 77 643T124 711L162 681Q123 638 118 596H165Z" />
<glyph unicode="&#x2019;" glyph-name="quoteright" horiz-adv-x="229" d="M165 705V633Q165 591 152 556T105 488L67 518Q106 561 111 603H63V705H165Z" />
<glyph unicode="&#x201a;" glyph-name="quotesinglbase" horiz-adv-x="229" d="M165 102V30Q165 -12 152 -46T105 -114L67 -85Q106 -42 111 0H63V102H165Z" />
<glyph unicode="&#x201c;" glyph-name="quotedblleft" horiz-adv-x="395" d="M165 596V494H63V566Q63 608 77 643T124 711L162 681Q123 638 118 596H165ZM331 596V494H229V566Q229 608 243 643T290 711L328 681Q289 638 284 596H331Z" />
<glyph unicode="&#x201d;" glyph-name="quotedblright" horiz-adv-x="395" d="M165 705V633Q165 591 152 556T105 488L67 518Q106 561 111 603H63V705H165ZM331 705V633Q331 591 318 556T271 488L233 518Q272 561 277 603H229V705H331Z" />
<glyph unicode="&#x201e;" glyph-name="quotedblbase" horiz-adv-x="395" d="M165 102V30Q165 -12 152 -46T105 -114L67 -85Q106 -42 111 0H63V102H165ZM331 102V30Q331 -12 318 -46T271 -114L233 -85Q272 -42 277 0H229V102H331Z" />
<glyph unicode="&#x2022;" glyph-name="bullet" horiz-adv-x="524" d="M214 88T172 111T106 175T81 265Q81 311 104 352T169 418T262 443Q310 443 351 420T418 356T443 265Q443 217 419 177T353 112T262 88Q214 88 172 111Z" />
<glyph unicode="&#x2039;" glyph-name="guilsinglleft" horiz-adv-x="260" d="M156 85L61 245V286L156 445L213 422L136 265L213 108L156 85Z" />
<glyph unicode="&#x203a;" glyph-name="guilsinglright" horiz-adv-x="258" d="M103 85L46 108L124 265L46 422L104 445L199 286V245L103 85Z" />
</font>
</defs>
</svg>
